<?xml version="1.0" standalone="no"?>
<!DOCTYPE svg PUBLIC "-//W3C//DTD SVG 1.1//EN" "http://www.w3.org/Graphics/SVG/1.1/DTD/svg11.dtd" >
<svg>
<metadata>
Created by FontForge 20090622 at Fri Nov 27 02:35:28 2015
 By deploy user
(c) 2001 Persiansoft
</metadata>
<defs>
<font id="Nasim" horiz-adv-x="819" >
  <font-face 
    font-family="Nasim"
    font-weight="5"
    font-stretch="normal"
    units-per-em="2048"
    panose-1="0 0 0 0 0 0 0 0 0 0"
    ascent="1638"
    descent="-410"
    x-height="1045"
    cap-height="1408"
    bbox="-258 -863 2060 2263"
    underline-thickness="100"
    underline-position="-800"
    unicode-range="U+000D-U+FEFF"
  />
<missing-glyph horiz-adv-x="1024" 
d="M128 0v2263h768v-2263h-768zM256 128h512v2007h-512v-2007z" />
    <glyph glyph-name="shaddawithkasraisolatedlow" unicode="&#x651;&#x64b;" horiz-adv-x="640" 
d="M551 1540q-47 -11 -183 -81q-126 -65 -148 -65q-42 0 -94 77q-21 31 -56 72h59q27 0 61.5 -32t44.5 -32q48 0 48 39q0 67 -64 105h61q29 0 49 -31q36 -54 48 -54q45 0 45 48q0 52 -52 80l51 4q43 3 72 -47q38 -68 58 -83zM640 1462q-34 -11 -212 -94q-156 -73 -201 -73
h-100q8 4 212 97q153 70 200 70h101z" />
    <glyph glyph-name="fathaonhamza" unicode="&#x674;&#x64e;" horiz-adv-x="621" 
d="M583 1686q-34 -11 -212 -94q-156 -73 -201 -73h-100q8 4 212 97q153 70 200 70h101zM459 1521q-18 -10 -53 -40l-26 -32q-12 -15 -12 -20q0 -11 13 -23l46 -44q20 -19 20 -43q0 -25 -15 -40l-72 -70q-32 -31 -88 -31q-25 0 -41 8q26 5 48 31l26 30q19 22 19 34
q0 8 -18 26l-37 37q-25 25 -25 47q0 24 26 49l61 58q27 26 89 26q17 0 39 -3z" />
    <glyph glyph-name="fathatanonhamza" unicode="&#x674;&#x64b;" horiz-adv-x="621" 
d="M545 1797q-34 -11 -212 -94q-156 -73 -201 -73h-100q8 4 212 97q153 70 200 70h101zM583 1686q-34 -11 -212 -94q-156 -73 -201 -73h-100q8 4 212 97q153 70 200 70h101zM459 1521q-18 -10 -53 -40l-26 -32q-12 -15 -12 -20q0 -11 13 -23l46 -44q20 -19 20 -43
q0 -25 -15 -40l-72 -70q-32 -31 -88 -31q-25 0 -41 8q26 5 48 31l26 30q19 22 19 34q0 8 -18 26l-37 37q-25 25 -25 47q0 24 26 49l61 58q27 26 89 26q17 0 39 -3z" />
    <glyph glyph-name="sukunonhamza" unicode="&#x674;&#x652;" horiz-adv-x="621" 
d="M363 1637q0 -50 -38.5 -83.5t-89.5 -33.5q-48 0 -86 29q-42 31 -42 78q0 50 64 116l84 86q0 -40 54 -99t54 -93zM439 1521q-18 -10 -53 -40l-26 -32q-12 -15 -12 -20q0 -11 13 -23l46 -44q20 -19 20 -43q0 -25 -15 -40l-72 -70q-32 -31 -88 -31q-25 0 -41 8q26 5 48 31
l26 30q19 22 19 34q0 8 -18 26l-37 37q-25 25 -25 47q0 24 26 49l61 58q27 26 89 26q17 0 39 -3zM297 1629q0 25 -66 94l-38 -42q-20 -22 -20 -44q0 -56 60 -56q21 0 42.5 14t21.5 34z" />
    <glyph glyph-name="dammaonhamza" unicode="&#x674;&#x64f;" horiz-adv-x="621" 
d="M491 1654q0 -45 -74 -78q41 -36 72 -55q-18 -10 -53 -40l-26 -32q-12 -15 -12 -20q0 -11 13 -23l46 -44q20 -19 20 -43q0 -25 -15 -40l-72 -70q-32 -31 -88 -31q-25 0 -41 8q26 5 48 31l26 30q19 22 19 34q0 8 -18 26l-37 37q-25 25 -25 47q0 24 26 49l61 58q24 23 45 26
q-10 2 -44 26l-99 -49q-69 -34 -121 -34h-92q108 41 257 123l-26 24q-36 33 -36 66q0 37 38 67l120 95q0 -25 44 -94t44 -94zM422 1664q0 56 -56 56q-51 0 -51 -41q0 -15 54 -59q53 31 53 44z" />
    <glyph glyph-name="dammatanonhamza" unicode="&#x674;&#x64c;" horiz-adv-x="621" 
d="M491 1654q0 -45 -74 -78q41 -36 72 -55q-18 -10 -53 -40l-26 -32q-12 -15 -12 -20q0 -11 13 -23l46 -44q20 -19 20 -43q0 -25 -15 -40l-72 -70q-32 -31 -88 -31q-25 0 -41 8q26 5 48 31l26 30q19 22 19 34q0 8 -18 26l-37 37q-25 25 -25 47q0 24 26 49l61 58q24 23 45 26
q-11 2 -44 25q-147 -82 -213 -82v83q-46 -20 -98 -20h-66q48 20 180 86l54 29v-96q32 12 90 40l-28 25q-36 32 -36 66q0 37 38 67l120 95q0 -25 44 -94t44 -94zM422 1664q0 56 -56 56q-51 0 -51 -41q0 -15 54 -59q53 31 53 44z" />
    <glyph glyph-name="shaddawithdammatanisolated" unicode="&#x651;&#x64c;" horiz-adv-x="621" arabic-form="isolated" 
d="M621 1816q-47 -11 -183 -81q-126 -65 -148 -65q-42 0 -94 77q-21 31 -56 72h59q27 0 61.5 -32t44.5 -32q48 0 48 39q0 67 -64 105h61q29 0 49 -31q36 -54 48 -54q45 0 45 48q0 50 -52 78q-12 5 -44 30q-147 -82 -213 -82v83q-46 -20 -98 -20h-66q48 20 180 86l54 29v-96
q32 12 90 40l-28 25q-36 32 -36 66q0 37 38 67l120 95q0 -25 44 -94t44 -94q0 -45 -74 -78l58 -52q30 -2 56 -51q33 -61 56 -78zM456 2085q0 56 -56 56q-51 0 -51 -41q0 -15 54 -59q53 31 53 44z" />
    <glyph glyph-name="shaddawithkasratanisolated" unicode="&#x651;&#x64d;" horiz-adv-x="678" arabic-form="isolated" 
d="M551 2026q-47 -11 -183 -81q-126 -65 -148 -65q-42 0 -94 77q-21 31 -56 72h59q27 0 61.5 -32t44.5 -32q48 0 48 39q0 67 -64 105h61q29 0 49 -31q36 -54 48 -54q45 0 45 48q0 52 -52 80l51 4q43 3 72 -47q38 -68 58 -83zM640 1948q-34 -11 -212 -94q-156 -73 -201 -73
h-100q8 4 212 97q153 70 200 70h101zM678 1837q-34 -11 -212 -94q-156 -73 -201 -73h-100q8 4 212 97q153 70 200 70h101z" />
    <glyph glyph-name="shaddawithfathaisolated" unicode="&#x651;&#x64e;" horiz-adv-x="621" arabic-form="isolated" 
d="M583 2061q-34 -11 -212 -94q-156 -73 -201 -73h-100q8 4 212 97q153 70 200 70h101zM621 1816q-47 -11 -183 -81q-126 -65 -148 -65q-42 0 -94 77q-21 31 -56 72h59q27 0 61.5 -32t44.5 -32q48 0 48 39q0 67 -64 105h61q29 0 49 -31q36 -54 48 -54q45 0 45 48
q0 52 -52 80l51 4q43 3 72 -47q38 -68 58 -83z" />
    <glyph glyph-name="shaddawithdammaisolated" unicode="&#x651;&#x64f;" horiz-adv-x="621" arabic-form="isolated" 
d="M621 1816q-47 -11 -183 -81q-126 -65 -148 -65q-42 0 -94 77q-21 31 -56 72h59q27 0 61.5 -32t44.5 -32q48 0 48 39q0 67 -64 105h61q29 0 49 -31q36 -54 48 -54q45 0 45 48q0 50 -52 78q-13 5 -45 31q-11 -4 -99 -49q-67 -34 -120 -34h-92q108 41 257 123l-26 24
q-36 33 -36 66q0 37 38 67l120 95q0 -25 44 -94t44 -94q0 -45 -74 -78l58 -52q30 -2 56 -51q33 -61 56 -78zM456 2085q0 56 -56 56q-51 0 -51 -41q0 -15 54 -59q53 31 53 44z" />
    <glyph glyph-name="shaddawithkasraisolated" unicode="&#x651;&#x650;" horiz-adv-x="640" arabic-form="isolated" 
d="M551 1915q-47 -11 -183 -81q-126 -65 -148 -65q-42 0 -94 77q-21 31 -56 72h59q27 0 61.5 -32t44.5 -32q48 0 48 39q0 67 -64 105h61q29 0 49 -31q36 -54 48 -54q45 0 45 48q0 52 -52 80l51 4q43 3 72 -47q38 -68 58 -83zM640 1837q-34 -11 -212 -94q-156 -73 -201 -73
h-100q8 4 212 97q153 70 200 70h101z" />
    <glyph glyph-name="shaddawithfathamedial" unicode="&#x640;&#x651;&#x64e;" horiz-adv-x="1033" arabic-form="medial" 
d="M743 1686q-34 -11 -212 -94q-156 -73 -201 -73h-100q8 4 212 97q153 70 200 70h101zM781 1441q-47 -11 -183 -81q-126 -65 -148 -65q-42 0 -94 77q-21 31 -56 72h59q27 0 61.5 -32t44.5 -32q48 0 48 39q0 67 -64 105h61q29 0 49 -31q36 -54 48 -54q45 0 45 48
q0 52 -52 80l51 4q43 3 72 -47q38 -68 58 -83zM1103 129h-1103v150h1103v-150z" />
    <glyph glyph-name="shaddawithdammamedial" unicode="&#x640;&#x651;&#x64f;" horiz-adv-x="1033" arabic-form="medial" 
d="M781 1441q-47 -11 -183 -81q-126 -65 -148 -65q-42 0 -94 77q-21 31 -56 72h59q27 0 61.5 -32t44.5 -32q48 0 48 39q0 67 -64 105h61q29 0 49 -31q36 -54 48 -54q45 0 45 48q0 50 -52 78q-13 5 -45 31q-11 -4 -99 -49q-67 -34 -120 -34h-92q108 41 257 123l-26 24
q-36 33 -36 66q0 37 38 67l120 95q0 -25 44 -94t44 -94q0 -45 -74 -78l58 -52q30 -2 56 -51q33 -61 56 -78zM616 1710q0 56 -56 56q-51 0 -51 -41q0 -15 54 -59q53 31 53 44zM1103 129h-1103v150h1103v-150z" />
    <glyph glyph-name="shaddawithkasramedial" unicode="&#x640;&#x651;&#x650;" horiz-adv-x="1033" arabic-form="medial" 
d="M751 1540q-47 -11 -183 -81q-126 -65 -148 -65q-42 0 -94 77q-21 31 -56 72h59q27 0 61.5 -32t44.5 -32q48 0 48 39q0 67 -64 105h61q29 0 49 -31q36 -54 48 -54q45 0 45 48q0 52 -52 80l51 4q43 3 72 -47q38 -68 58 -83zM840 1462q-34 -11 -212 -94q-156 -73 -201 -73
h-100q8 4 212 97q153 70 200 70h101zM1103 129h-1103v150h1103v-150z" />
    <glyph glyph-name="alefwithfathatanfinal" unicode="&#xfe8e;&#x64b;" horiz-adv-x="420" arabic-form="final" 
d="M490 129h-305v818q0 63 -115 267q68 0 220 176v-996q0 -23 42 -69t65 -46h93v-150zM400 1677q-34 -11 -212 -94q-156 -73 -201 -73h-100q8 4 212 97q153 70 200 70h101zM438 1566q-34 -11 -212 -94q-156 -73 -201 -73h-100q8 4 212 97q153 70 200 70h101z" />
    <glyph glyph-name="alefwithfathatanisolated" unicode="&#xfe8d;&#x64b;" horiz-adv-x="606" arabic-form="isolated" 
d="M586 155q-19 -26 -146 -26q-130 0 -183 31q-72 42 -72 161v626q0 63 -115 267q77 0 220 176v-958q0 -107 51 -164q41 -46 139 -82q38 -10 106 -31zM400 1677q-34 -11 -212 -94q-156 -73 -201 -73h-100q8 4 212 97q153 70 200 70h101zM438 1566q-34 -11 -212 -94
q-156 -73 -201 -73h-100q8 4 212 97q153 70 200 70h101z" />
    <glyph glyph-name="allahisolated" unicode="&#xfedf;&#xfee0;&#xfed4;" horiz-adv-x="1098" arabic-form="isolated" 
d="M571 1321l-14 -31q-44 89 -70 122q-37 49 -108 91l-41 125q93 -16 155 -118q36 -60 78 -189zM754 1130q0 -49 -25 -92q-29 -51 -74 -51q-21 0 -67 14q-50 -88 -103 -88q-79 0 -79 101q0 88 30 110q0 -98 53 -98q72 0 86 158l15 6q18 -92 61 -92q68 0 68 147l16 6
q19 -69 19 -121zM1018 338q0 -76 -30 -140q-38 -81 -105 -81q-85 0 -154 164q-53 -177 -201 -177q-121 0 -155 148q-90 -98 -140 -98q-49 0 -101 15q-71 20 -71 56q0 76 97 176q88 92 168 121l-2 41q-1 24 38 111q34 -231 37 -242q47 -182 146 -182q88 0 160 106l-57 197
q-30 115 -30 201q0 45 52 110q52 -294 66 -343q69 -247 186 -247q47 0 47 45q0 76 -51.5 220.5t-51.5 220.5q0 32 35 110l74 -267q43 -171 43 -265zM362 313l-26 146q-113 -50 -164 -142q71 -24 117 -24q27 0 73 20z" />
    <glyph glyph-name="tatweelwithfathatanabove" unicode="&#x640;&#x64b;" horiz-adv-x="1033" arabic-form="medial" 
d="M754 1573q-34 -11 -212 -94q-156 -73 -201 -73h-100q8 4 212 97q153 70 200 70h101zM792 1462q-34 -11 -212 -94q-156 -73 -201 -73h-100q8 4 212 97q153 70 200 70h101zM1103 129h-1103v150h1103v-150z" />
    <glyph glyph-name="fathamedial" unicode="&#x640;&#x64e;" horiz-adv-x="1033" arabic-form="medial" 
d="M773 1462q-34 -11 -212 -94q-156 -73 -201 -73h-100q8 4 212 97q153 70 200 70h101zM1103 129h-1103v150h1103v-150z" />
    <glyph glyph-name="dammamedial" unicode="&#x640;&#x64f;" horiz-adv-x="1033" arabic-form="medial" 
d="M737 1482q0 -45 -74 -78l58 -52h-44q-33 0 -70 26q-11 -4 -99 -49q-67 -34 -120 -34h-92q108 41 257 123l-26 24q-36 33 -36 66q0 37 38 67l120 95q0 -25 44 -94t44 -94zM668 1492q0 56 -56 56q-51 0 -51 -41q0 -15 54 -59q53 31 53 44zM1103 129h-1103v150h1103v-150z
" />
    <glyph glyph-name="kasramedial" unicode="&#x640;&#x650;" horiz-adv-x="1033" arabic-form="medial" 
d="M773 -230q-34 -11 -212 -94q-156 -73 -201 -73h-100q8 4 212 97q153 70 200 70h101zM1103 129h-1103v150h1103v-150z" />
    <glyph glyph-name="shaddamedial" unicode="&#x640;&#x651;" horiz-adv-x="1033" arabic-form="medial" 
d="M757 1441q-47 -11 -183 -81q-126 -65 -148 -65q-42 0 -94 77q-21 31 -56 72h59q27 0 61.5 -32t44.5 -32q48 0 48 39q0 67 -64 105h61q29 0 49 -31q36 -54 48 -54q45 0 45 48q0 52 -52 80l51 4q43 3 72 -47q38 -68 58 -83zM1103 129h-1103v150h1103v-150z" />
    <glyph glyph-name="sukunmedial" unicode="&#x640;&#x652;" horiz-adv-x="1033" arabic-form="medial" 
d="M645 1412q0 -50 -38.5 -83.5t-89.5 -33.5q-48 0 -86 29q-42 31 -42 78q0 50 64 116l84 86q0 -40 54 -99t54 -93zM579 1404q0 22 -22 47l-44 47q-58 -61 -58 -86q0 -56 60 -56q21 0 42.5 14t21.5 34zM1103 129h-1103v150h1103v-150z" />
    <glyph glyph-name="lamwithalefmaddaaboveisolatedd" unicode="&#xfedf;&#xfe82;" horiz-adv-x="1131" arabic-form="isolated" 
d="M1124 945l-4 -14l-65 30q-61 -368 -196 -641q50 -109 50 -167q0 -92 -26 -125q-93 -28 -359 -28l30 145q129 58 207 171q-158 272 -432 484l-29 -27q-81 45 -141 111q7 68 36 191q403 -287 614 -680q146 288 151 717l135 88zM833 146q0 65 -34 106q-64 -74 -127 -118h50
q70 0 111 12zM439 1328q1 -25 -70 -50q-61 -21 -94.5 -21t-87.5 -6q-6 -27 -33 -72h-12q-21 0 -30 13q9 152 49 152q14 0 41.5 -6.5t41.5 -6.5q81 0 193 53z" />
    <glyph glyph-name="lamwithalefmaddaabovefinal" unicode="&#xfee0;&#xfe82;" horiz-adv-x="1222" arabic-form="final" 
d="M1248 1h-61q-199 0 -206 511q-2 -39 2 -108l2 373q-181 -780 -617 -780q-269 0 -278 5l300 118q199 79 276 149q-17 149 -117 296q-66 98 -211 245l-39 -24q-48 42 -128 133q14 127 44 204q178 -112 329 -345q149 -228 186 -440q69 103 171 466q93 334 171 410
q18 -68 18 -246q0 -82 -4.5 -226t-4.5 -182q0 -163 8 -229q21 -168 92 -188q9 -3 67 -3v-139zM439 1372q2 -66 -252 -77q-10 -30 -33 -73q-25 4 -42 13q9 152 49 152q14 0 41.5 -6.5t41.5 -6.5q41 0 100 15q65 17 93 38z" />
    <glyph glyph-name="lamwithalefhamzaaboveisolatedd" unicode="&#xfedf;&#xfe84;" horiz-adv-x="1071" arabic-form="isolated" 
d="M1063 945l-4 -14l-65 30q-58 -373 -196 -641q49 -105 49 -167q0 -159 -182 -156l-201 3l29 145q142 69 207 171q-130 244 -432 484l-29 -27q-53 34 -140 111q2 109 34 191q446 -322 615 -680q68 136 111 350q40 200 40 367q11 10 135 88zM772 146v12q0 43 -34 94
q-51 -64 -126 -118h55q64 0 105 12zM426 1374q1 -77 -51 -83q-118 -14 -274 -112v57l2 9q63 37 99 54q-80 42 -80 93q0 40 62.5 97.5t103.5 57.5q53 0 115 -55l-59 -57q-41 33 -68 33q-60 0 -85 -53q30 -64 98 -75z" />
    <glyph glyph-name="lamwithalefhamzaabovefinal" unicode="&#xfee0;&#xfe84;" horiz-adv-x="1222" arabic-form="final" 
d="M1248 1h-61q-199 0 -206 511q-2 -39 2 -108l2 373q-181 -780 -617 -780q-269 0 -278 5l300 118q199 79 276 149q-17 149 -117 296q-66 98 -211 245l-39 -24q-48 42 -128 133q14 127 44 204q178 -112 329 -345q149 -228 186 -440q69 103 171 466q93 334 171 410
q18 -68 18 -246q0 -82 -4.5 -226t-4.5 -182q0 -163 8 -229q21 -168 92 -188q9 -3 67 -3v-139zM487 1392q-2 -70 -50 -85q-113 -36 -142 -46q-77 -29 -134 -65q1 59 27 81q1 1 75 39q-81 42 -81 93q0 40 62.5 97.5t103.5 57.5q50 0 116 -54l-60 -58q-34 34 -67 34
q-60 0 -86 -53q29 -64 98 -76q89 26 138 35z" />
    <glyph glyph-name="lamwithalefhamzabelowisolated" unicode="&#xfedf;&#xfe88;" horiz-adv-x="1071" arabic-form="isolated" 
d="M1063 945l-4 -14l-65 30q-58 -373 -196 -641q49 -105 49 -167q0 -159 -182 -156l-201 3l29 145q142 69 207 171q-130 244 -432 484l-29 -27q-53 34 -140 111q2 109 34 191q446 -322 615 -680q68 136 111 350q40 200 40 367q11 10 135 88zM772 146v12q0 43 -34 94
q-51 -64 -126 -118h55q64 0 105 12zM621 -269q0 -43 -28 -84q-122 0 -298 -112q0 23 5 67q22 16 97 54q-80 37 -80 93q0 40 62.5 97.5t103.5 57.5q58 0 115 -55l-60 -57q-33 33 -67 33q-62 0 -86 -53q31 -63 98 -75q44 12 138 34z" />
    <glyph glyph-name="lamwithalefhamzabelowfinal" unicode="&#xfee0;&#xfe88;" horiz-adv-x="1222" arabic-form="final" 
d="M1248 1h-61q-199 0 -206 511q-2 -39 2 -108l2 373q-181 -780 -617 -780q-269 0 -278 5l300 118q199 79 276 149q-17 149 -117 296q-66 98 -211 245l-39 -24q-48 42 -128 133q14 127 44 204q178 -112 329 -345q149 -228 186 -440q69 103 171 466q93 334 171 410
q18 -68 18 -246q0 -82 -4.5 -226t-4.5 -182q0 -163 8 -229q21 -168 92 -188q9 -3 67 -3v-139zM621 -269q0 -43 -28 -84q-122 0 -298 -112q0 23 5 67q22 16 97 54q-80 37 -80 93q0 40 62.5 97.5t103.5 57.5q58 0 115 -55l-60 -57q-33 33 -67 33q-62 0 -86 -53q31 -63 98 -75
q44 12 138 34z" />
    <glyph glyph-name="lamwithalefisolated" unicode="&#xfedf;&#xfe8e;" horiz-adv-x="1071" arabic-form="isolated" 
d="M1063 945l-4 -14l-65 30q-58 -373 -196 -641q49 -105 49 -167q0 -159 -182 -156l-201 3l29 145q142 69 207 171q-130 244 -432 484l-29 -27q-53 34 -140 111q2 109 34 191q446 -322 615 -680q68 136 111 350q40 200 40 367q11 10 135 88zM772 146v12q0 43 -34 94
q-51 -64 -126 -118h55q64 0 105 12z" />
    <glyph glyph-name="lamwithaleffinal" unicode="&#xfee0;&#xfe8e;" horiz-adv-x="1222" arabic-form="final" 
d="M1248 1h-61q-199 0 -206 511q-2 -39 2 -108l2 373q-181 -780 -617 -780q-269 0 -278 5l300 118q199 79 276 149q-17 149 -117 296q-66 98 -211 245l-39 -24q-48 42 -128 133q14 127 44 204q178 -112 329 -345q149 -228 186 -440q69 103 171 466q93 334 171 410
q18 -68 18 -246q0 -82 -4.5 -226t-4.5 -182q0 -163 8 -229q21 -168 92 -188q9 -3 67 -3v-139z" />
    <glyph glyph-name="alefwaslaisolated" unicode="&#x671;" horiz-adv-x="500" arabic-form="isolated" 
 />
    <glyph glyph-name="alefwaslafinal" unicode="&#x671;" horiz-adv-x="500" arabic-form="final" 
 />
    <glyph glyph-name="pehisolated" unicode="&#x67e;" horiz-adv-x="1309" arabic-form="isolated" 
d="M1308 294q0 -137 -113 -200q-68 -37 -235 -64q-252 -40 -400 -40q-164 0 -275 47q-154 64 -154 204q0 72 29 155q31 88 77 136l43 -28q-56 -118 -56 -174q0 -199 399 -199q146 0 312 23q218 29 286 82q-1 31 -73 160q53 94 85 141q13 -13 44 -114t31 -129zM896 -228
l-97 -90l-95 96l97 90zM681 -226l-97 -91l-95 96l97 90zM788 -407l-96 -89l-96 95l98 90z" />
    <glyph glyph-name="pehfinal" unicode="&#x67e;" horiz-adv-x="1390" arabic-form="final" 
d="M1416 1h-60q-176 0 -176 162q-109 -87 -303 -134q-164 -39 -333 -39q-160 0 -268 50q-145 67 -145 208q0 63 33 152.5t74 131.5l43 -28q-57 -97 -57 -177q0 -196 399 -196q485 0 604 253l51 -18q-19 -69 -19 -118q0 -73 46 -95q28 -13 111 -13v-139zM896 -228l-97 -90
l-95 96l97 90zM681 -226l-97 -91l-95 96l97 90zM788 -407l-96 -89l-96 95l98 90z" />
    <glyph glyph-name="pehinitial" unicode="&#x67e;" horiz-adv-x="395" arabic-form="initial" 
d="M336 264q0 -99 -88 -181t-188 -82h-94v139q280 0 280 101l-76 130q18 61 64 167l6 -3q96 -148 96 -271zM412 -233l-96 -90l-96 95l97 90zM197 -232l-96 -89l-95 95l96 90zM305 -411l-97 -91l-95 95l96 90z" />
    <glyph glyph-name="pehmedial" unicode="&#x67e;" horiz-adv-x="473" arabic-form="medial" 
d="M498 1h-76q-109 0 -181 106q-74 -106 -208 -106h-59v139q124 0 176 39q60 46 60 166q20 8 35 8l30 -8q0 -137 50 -175q39 -30 173 -30v-139zM438 -228l-96 -90l-96 96l98 90zM223 -226l-96 -91l-95 96l96 90zM331 -407l-97 -89l-95 95l97 90z" />
    <glyph glyph-name="vehisolated" unicode="&#x6a4;" horiz-adv-x="500" arabic-form="isolated" 
 />
    <glyph glyph-name="vehfinal" unicode="&#x6a4;" horiz-adv-x="500" arabic-form="final" 
 />
    <glyph glyph-name="vehinitial" unicode="&#x6a4;" horiz-adv-x="500" arabic-form="initial" 
 />
    <glyph glyph-name="vehmedial" unicode="&#x6a4;" horiz-adv-x="500" arabic-form="medial" 
 />
    <glyph glyph-name="tchehisolated" unicode="&#x686;" horiz-adv-x="947" arabic-form="isolated" 
d="M792 -5l-97 -89l-95 95l96 90zM660 -520q-208 0 -350 77q-179 96 -179 286q0 195 150 338q103 98 324 201q-226 68 -288 68q-45 0 -97 -98l-51 12q98 238 153 238q46 0 212.5 -54.5t295.5 -54.5q51 0 102 7l9 -6q-16 -68 -57 -130q-199 0 -396 -128q-220 -143 -220 -330
q0 -166 165 -245q125 -60 311 -60q44 0 132 11t131 11l8 -4q-50 -96 -154 -124q-56 -15 -201 -15zM577 -3l-97 -90l-96 96l98 90zM684 -182l-97 -91l-95 95l97 90z" />
    <glyph glyph-name="tchehfinal" unicode="&#x686;" horiz-adv-x="1048" arabic-form="final" 
d="M766 -15l-97 -90l-96 96l98 90zM1074 1h-73q-145 0 -200 107q-40 78 -40 238q-187 -48 -321 -149q-171 -128 -171 -291q0 -304 512 -304q49 0 145.5 14.5t144.5 14.5l8 -4q-11 -27 -75 -99q-125 -48 -344 -48q-208 0 -350 77q-179 96 -179 286q0 332 474 539
q-226 68 -288 68q-43 0 -97 -98l-51 12q98 238 153 238q37 0 226.5 -53.5t293.5 -53.5q33 0 93.5 12t89.5 13l6 -4q-4 -23 -55 -140q-52 0 -146 -16q0 -129 59 -177q53 -43 185 -43v-139zM551 -13l-97 -90l-96 96l98 89zM658 -194l-97 -89l-95 95l97 90z" />
    <glyph glyph-name="tchehinitial" unicode="&#x686;" horiz-adv-x="841" arabic-form="initial" 
d="M775 170q-45 6 -82 6q-110 0 -315.5 -87.5t-316.5 -87.5h-87v139q358 -3 565 118q-62 31 -178 111t-180 111q-43 -18 -96 -97l-41 27q97 211 156 211q43 0 180 -98q172 -122 192 -133q95 -51 270 -96zM573 -238l-96 -91l-95 96l96 90zM358 -236l-96 -91l-95 95l96 91z
M466 -417l-96 -90l-96 96l97 90z" />
    <glyph glyph-name="tchehmedial" unicode="&#x686;" horiz-adv-x="1084" arabic-form="medial" 
d="M1111 1h-45q-163 0 -237.5 68.5t-74.5 217.5q0 26 2 55q-75 -38 -211 -139t-207 -139q-122 -63 -241 -63h-123v139q207 0 345 56q104 43 298 182q-61 3 -225 71q-160 66 -189 66q-35 0 -98 -95l-50 12q50 115 62 135q51 93 98 93q37 0 231 -80.5t296 -80.5q127 0 280 26
l4 -6q-6 -44 -61 -131q-77 -1 -149 -24q0 -131 87 -183q67 -41 208 -41v-139zM802 -233l-96 -90l-96 95l97 90zM587 -232l-96 -89l-96 95l97 90zM695 -411l-97 -91l-95 95l97 90z" />
    <glyph glyph-name="jehisolated" unicode="&#x698;" horiz-adv-x="620" arabic-form="isolated" 
d="M523 904l-97 -90l-95 95l97 90zM631 723l-98 -90l-95 96l97 90zM416 725l-97 -90l-96 96l97 90zM571 109q0 -130 -97 -330q-108 -225 -218 -225q-34 0 -96 16q-67 17 -89 34q234 160 260 181q161 134 161 249q0 78 -122 223q15 60 23 86q16 50 36 81q34 -14 89 -144
q53 -124 53 -171z" />
    <glyph glyph-name="jehfinal" unicode="&#x698;" horiz-adv-x="696" arabic-form="final" 
d="M541 869l-97 -90l-96 95l97 90zM648 689l-97 -90l-95 95l97 90zM433 691l-97 -91l-95 96l97 90zM722 1h-31q-76 0 -108 41q0 -118 -113 -319q-123 -218 -225 -218q-26 0 -89 21t-87 36q186 112 272 185q166 140 166 261q0 63 -131 224q17 60 60 167q47 -35 82 -109
q39 -82 61 -104q47 -46 143 -46v-139z" />
    <glyph glyph-name="kehehisolated" unicode="&#x6a9;" horiz-adv-x="1521" arabic-form="isolated" 
d="M1494 895l-279 -85q-161 -51 -272 -105q172 -92 228 -137q122 -100 122 -222q0 -219 -190 -297q-120 -49 -379 -49h-163q-430 0 -430 257q0 67 31 150.5t75 133.5l44 -28q-57 -92 -57 -177q0 -132 186 -174q91 -21 291 -21q452 0 527 143q-31 110 -143 196q-4 3 -210 133
q0 113 21 183q350 186 679 248l6 -6q-27 -72 -87 -143z" />
    <glyph glyph-name="kehehfinal" unicode="&#x6a9;" horiz-adv-x="1712" arabic-form="final" 
d="M1575 1044l6 -6q-26 -68 -87 -143q-182 -58 -540 -190q145 -87 263 -165q49 -33 158 -145q121 -125 180 -172q104 -83 182 -83v-139h-37q-87 0 -221 132l-186 205q1 -101 -16 -179q-19 -86 -238 -129q-150 -30 -299 -30h-179q-430 0 -430 257q0 66 32 151.5t75 132.5
l43 -28q-57 -92 -57 -177q0 -195 427 -195q590 0 590 145q0 71 -69 136q-44 41 -147.5 102.5t-133.5 89.5q0 115 19 184q435 203 665 246z" />
    <glyph glyph-name="kehehinitial" unicode="&#x6a9;" horiz-adv-x="694" arabic-form="initial" 
d="M662 895l-551 -190q172 -92 228 -137q122 -100 122 -222q0 -214 -147 -291q-104 -54 -340 -54v139h25q117 -2 232 25q165 40 165 119q0 77 -70 141q-40 36 -148 97q-101 58 -134 93q1 73 2 92q4 52 18 89q391 196 680 248l4 -8q-37 -82 -86 -141z" />
    <glyph glyph-name="kehehmedial" unicode="&#x6a9;" horiz-adv-x="891" arabic-form="medial" 
d="M744 1044l4 -8q-37 -82 -86 -141q-267 -90 -529 -188q159 -88 330 -236l299 -274q63 -57 155 -57v-139h-37q-86 0 -221 132l-187 205q-2 -80 -14 -179q-90 -158 -484 -158v139h18q121 -1 248 28q180 40 180 118q0 77 -73 139q-34 30 -151 96q-96 55 -126 96q4 91 4 92
q4 52 17 89q422 205 653 246z" />
    <glyph glyph-name="gafisolated" unicode="&#x6af;" horiz-adv-x="1521" arabic-form="isolated" 
d="M1494 895l-279 -85q-161 -51 -272 -105q172 -92 228 -137q122 -100 122 -222q0 -219 -190 -297q-120 -49 -379 -49h-163q-430 0 -430 257q0 67 31 150.5t75 133.5l44 -28q-57 -92 -57 -177q0 -132 186 -174q91 -21 291 -21q452 0 527 143q-31 110 -143 196q-4 3 -210 133
q0 113 21 183q350 186 679 248l6 -6q-27 -72 -87 -143zM1521 1199l-47 -88q-142 -43 -549 -206l18 86q192 82 284 117q161 61 294 91z" />
    <glyph glyph-name="gaffinal" unicode="&#x6af;" horiz-adv-x="1712" arabic-form="final" 
d="M1575 1044l6 -6q-26 -68 -87 -143q-182 -58 -540 -190q145 -87 263 -165q49 -33 158 -145q121 -125 180 -172q104 -83 182 -83v-139h-37q-87 0 -221 132l-186 205q1 -101 -16 -179q-19 -85 -237 -129q-150 -30 -299 -30h-180q-430 0 -430 257q0 66 32 151.5t75 132.5
l43 -28q-57 -92 -57 -177q0 -195 427 -195q590 0 590 145q0 71 -69 136q-44 41 -147.5 102.5t-133.5 89.5q0 115 19 184q435 203 665 246zM1521 1199l-47 -88q-142 -43 -549 -206l18 86q192 82 284 117q161 61 294 91z" />
    <glyph glyph-name="gafinitial" unicode="&#x6af;" horiz-adv-x="694" arabic-form="initial" 
d="M662 895l-551 -190q172 -92 228 -137q122 -100 122 -222q0 -214 -147 -291q-104 -54 -340 -54v139h25q117 -2 232 25q165 40 165 119q0 77 -70 141q-40 36 -148 97q-101 58 -134 93q1 73 2 92q4 52 18 89q391 196 680 248l4 -8q-37 -82 -86 -141zM689 1199l-47 -88
q-120 -33 -548 -206l17 86q366 158 578 208z" />
    <glyph glyph-name="gafmedial" unicode="&#x6af;" horiz-adv-x="891" arabic-form="medial" 
d="M744 1044l4 -8q-37 -82 -86 -141q-267 -90 -529 -188q159 -88 330 -236l299 -274q63 -57 155 -57v-139h-37q-86 0 -221 132l-187 205q-2 -80 -14 -179q-90 -158 -484 -158v139h18q121 -1 248 28q180 40 180 118q0 77 -73 139q-34 30 -151 96q-96 55 -126 96q4 91 4 92
q4 52 17 89q422 205 653 246zM689 1199l-47 -88q-120 -33 -548 -206l17 86q366 158 578 208z" />
    <glyph glyph-name="farsiyehisolated" unicode="&#x6cc;" horiz-adv-x="1296" arabic-form="isolated" 
d="M1294 603q-13 -53 -52 -152q-11 0 -33 2.5t-33 2.5q-97 0 -190 -81q-79 -70 -126 -170q22 -40 186 -97q146 -51 146 -120q0 -94 -54 -203q-346 -180 -707 -180q-117 0 -207 82q-93 85 -93 201q0 90 52 211q48 112 113 189q36 -9 55 -32q-110 -192 -110 -288
q0 -217 330 -217q104 0 282 53q192 58 253 119q-12 10 -192 82q-146 58 -146 109q0 154 138 331q145 185 294 185q80 0 94 -27z" />
    <glyph glyph-name="farsiyehfinal" unicode="&#x6cc;" horiz-adv-x="1165" arabic-form="final" 
d="M1191 1q-162 2 -181 0q-107 -10 -164 -66l144 -51q110 -42 110 -66q0 -43 -8 -106q-12 -85 -30 -97q-74 -51 -272 -92q-177 -36 -291 -36q-144 0 -242 53q-123 67 -123 199q0 107 36 220q40 123 107 193q40 -11 55 -31q-97 -175 -97 -274q0 -217 323 -217q259 0 463 84
l8 12l-5 11l-135 49q-78 31 -127 66q0 135 74 211.5t208 76.5h147v-139z" />
    <glyph glyph-name="fathatanisolated" unicode="&#xfe70;" horiz-adv-x="583" arabic-form="isolated" 
d="M545 1573q-34 -11 -212 -94q-156 -73 -201 -73h-100q8 4 212 97q153 70 200 70h101zM583 1462q-34 -11 -212 -94q-156 -73 -201 -73h-100q8 4 212 97q153 70 200 70h101z" />
    <glyph glyph-name="dammatanisolated" unicode="&#xfe72;" horiz-adv-x="576" arabic-form="isolated" 
d="M576 1482q0 -45 -74 -78l58 -52h-44q-33 0 -69 25q-147 -82 -213 -82v83q-46 -20 -98 -20h-66q48 20 180 86l54 29v-96q32 12 90 40l-28 25q-36 32 -36 66q0 37 38 67l120 95q0 -25 44 -94t44 -94zM507 1492q0 56 -56 56q-51 0 -51 -41q0 -15 54 -59q53 31 53 44z" />
    <glyph glyph-name="kasratanisolated" unicode="&#xfe74;" horiz-adv-x="583" arabic-form="isolated" 
d="M545 -230q-34 -11 -212 -94q-156 -73 -201 -73h-100q8 4 212 97q153 70 200 70h101zM583 -341q-34 -11 -212 -94q-156 -73 -201 -73h-100q8 4 212 97q153 70 200 70h101z" />
    <glyph glyph-name="fathaisolated" unicode="&#xfe76;" horiz-adv-x="583" arabic-form="isolated" 
d="M583 1462q-34 -11 -212 -94q-156 -73 -201 -73h-100q8 4 212 97q153 70 200 70h101z" />
    <glyph glyph-name="dammaisolated" unicode="&#xfe78;" horiz-adv-x="511" arabic-form="isolated" 
d="M511 1482q0 -45 -74 -78l58 -52h-44q-33 0 -70 26q-11 -4 -99 -49q-67 -34 -120 -34h-92q108 41 257 123l-26 24q-36 33 -36 66q0 37 38 67l120 95q0 -25 44 -94t44 -94zM442 1492q0 56 -56 56q-51 0 -51 -41q0 -15 54 -59q53 31 53 44z" />
    <glyph glyph-name="kasraisolated" unicode="&#xfe7a;" horiz-adv-x="583" arabic-form="isolated" 
d="M583 -230q-34 -11 -212 -94q-156 -73 -201 -73h-100q8 4 212 97q153 70 200 70h101z" />
    <glyph glyph-name="shaddaisolated" unicode="&#xfe7c;" horiz-adv-x="551" arabic-form="isolated" 
d="M551 1441q-47 -11 -183 -81q-126 -65 -148 -65q-42 0 -94 77q-21 31 -56 72h59q27 0 61.5 -32t44.5 -32q48 0 48 39q0 67 -64 105h61q29 0 49 -31q36 -54 48 -54q45 0 45 48q0 52 -52 80l51 4q43 3 72 -47q38 -68 58 -83z" />
    <glyph glyph-name="sukunisolated" unicode="&#xfe7e;" horiz-adv-x="326" arabic-form="isolated" 
d="M326 1412q0 -50 -38.5 -83.5t-89.5 -33.5q-48 0 -86 29q-42 31 -42 78q0 50 64 116l84 86q0 -40 54 -99t54 -93zM260 1404q0 25 -66 94l-38 -42q-20 -22 -20 -44q0 -56 60 -56q21 0 42.5 14t21.5 34z" />
    <glyph glyph-name="hamzaisolated" unicode="&#x621;" horiz-adv-x="533" arabic-form="isolated" 
d="M386 291l2 -30l-2 -50q-75 -1 -89 -3q-57 -11 -57 -53q0 -57 108 -57q-6 0 108 30l15 -83l-374 -92q-13 57 -27 84l115 26l15 14q-38 58 -38 98q0 127 183 118z" />
    <glyph glyph-name="alefwithmaddaaboveisolated" unicode="&#x622;" horiz-adv-x="394" arabic-form="isolated" 
d="M387 1381q-40 -54 -118 -63q-132 -15 -134 -15q-6 -28 -34 -72q-28 1 -41 13q9 152 49 152q14 0 41.5 -6.5t41.5 -6.5q108 0 192 53zM320 101q-24 -57 -72 -126q-2 7 -4 22l-28 941q-1 43 -42 171q62 77 108 121q38 -44 38 -402v-727z" />
    <glyph glyph-name="alefwithmaddaabovefinal" unicode="&#x622;" horiz-adv-x="459" arabic-form="final" 
d="M387 1363q-43 -68 -252 -77q-9 -31 -34 -73q-24 4 -41 13q9 153 49 153q14 0 41.5 -6.5t41.5 -6.5q84 0 192 53zM484 1h-60q-86 0 -138 80q-44 68 -46 160l-8 460q-3 189 -58 378q28 44 45 66q33 43 56 53q23 -36 40 -270q13 -185 13 -296q0 -40 -6 -119.5t-6 -119.5
q0 -253 168 -253v-139z" />
    <glyph glyph-name="alefwithhamzaaboveisolated" unicode="&#x623;" horiz-adv-x="377" arabic-form="isolated" 
d="M353 1392q-4 -26 -24 -71q-117 -5 -250 -94v36l3 20q31 19 82 45q-67 31 -67 78q0 32 53 81.5t86 49.5q54 0 96 -47l-50 -48q-24 28 -55 28q-52 0 -72 -45q26 -53 81 -63zM320 101q-24 -57 -72 -126q-2 7 -4 22l-28 941q-1 43 -42 171q62 77 108 121q38 -44 38 -402v-727
z" />
    <glyph glyph-name="alefwithhamzaabovefinal" unicode="&#x623;" horiz-adv-x="467" arabic-form="final" 
d="M353 1374q0 -47 -24 -71q-102 0 -250 -93v36l4 20l81 45q-67 31 -67 77q0 32 53 81.5t86 49.5q48 0 96 -45l-50 -50q-24 28 -55 28q-52 0 -72 -44q22 -51 81 -63q73 22 117 29zM493 1h-60q-125 0 -174 227q-30 137 -42 466q-12 309 -35 385q38 64 101 119q51 -87 51 -419
q0 -62 -2 -158t-2 -120q0 -19 -1.5 -62t-1.5 -66q0 -109 28 -161q39 -72 138 -72v-139z" />
    <glyph glyph-name="wawwithhamzaaboveisolated" unicode="&#x624;" horiz-adv-x="634" arabic-form="isolated" 
d="M633 63q0 -130 -111 -340q-122 -231 -233 -231q-42 0 -102 23t-94 51q237 135 284 173q147 116 172 273q-65 -10 -169 -10t-136 45q-25 35 -25 143q0 79 61 181q67 112 140 112q114 0 171 -161q42 -117 42 -259zM539 165q0 57 -43 113q-46 60 -101 60q-36 0 -59 -55
q-19 -44 -19 -86q0 -58 95 -58q82 0 127 26zM472 799q0 -47 -24 -71q-102 0 -250 -93v36l4 20l81 45q-67 31 -67 77q0 32 53 81.5t86 49.5q48 0 96 -45l-50 -50q-24 28 -55 28q-52 0 -72 -44q22 -51 81 -63q73 22 117 29z" />
    <glyph glyph-name="wawwithhamzaabovefinal" unicode="&#x624;" horiz-adv-x="694" arabic-form="final" 
d="M720 1h-93q-13 -118 -121 -303q-120 -206 -217 -206q-42 0 -102.5 23t-93.5 51q235 135 279 169q139 110 175 267l-68 -1q-196 -1 -255 56q-8 24 -8 48q0 119 46 232q58 146 158 146q97 0 163 -127q56 -108 56 -216h81v-139zM551 144q0 62 -46 128q-50 72 -109 72
q-37 0 -61 -62q-20 -50 -20 -95q0 -46 203 -46zM472 799q0 -47 -24 -71q-102 0 -250 -93v36l4 20l81 45q-67 31 -67 77q0 32 53 81.5t86 49.5q48 0 96 -45l-50 -50q-24 28 -55 28q-52 0 -72 -44q22 -51 81 -63q73 22 117 29z" />
    <glyph glyph-name="alefwithhamzabelowisolated" unicode="&#x625;" horiz-adv-x="283" arabic-form="isolated" 
d="M276 101q0 -33 -72 -126q-10 17 -12 119q-2 73 -1 194q2 160 2 139q0 489 -62 682q33 43 107 121l5 -8q33 -164 33 -389v-732zM371 -247q0 -47 -24 -71q-102 0 -250 -93v36l4 20l81 45q-67 31 -67 77q0 32 53 81.5t86 49.5q48 0 96 -45l-50 -50q-24 28 -55 28
q-52 0 -72 -44q22 -51 81 -63q73 22 117 29z" />
    <glyph glyph-name="alefwithhamzabelowfinal" unicode="&#x625;" horiz-adv-x="416" arabic-form="final" 
d="M441 1h-59q-185 0 -191 332l-8 421q-3 138 -52 325q35 58 100 119q53 -134 53 -566q0 -40 -6 -118.5t-6 -118.5q0 -255 169 -255v-139zM371 -247q0 -47 -24 -71q-102 0 -250 -93v36l4 20l81 45q-67 31 -67 77q0 32 53 81.5t86 49.5q48 0 96 -45l-50 -50q-24 28 -55 28
q-52 0 -72 -44q22 -51 81 -63q73 22 117 29z" />
    <glyph glyph-name="yehwithhamzaaboveisolated" unicode="&#x626;" horiz-adv-x="1296" arabic-form="isolated" 
d="M1294 603q-13 -53 -52 -152q-11 0 -33 2.5t-33 2.5q-97 0 -190 -81q-79 -70 -126 -170q22 -40 186 -97q146 -51 146 -120q0 -91 -54 -203q-346 -180 -707 -180q-117 0 -207 82q-93 85 -93 201q0 90 52 211q48 112 113 189q36 -9 55 -32q-110 -192 -110 -288
q0 -217 330 -217q104 0 282 53q192 58 253 119q-11 8 -193 82q-145 60 -145 109q0 154 138 331q145 185 294 185q80 0 94 -27zM717 746q0 -41 -29 -85q-124 0 -297 -111v12q0 19 5 54q33 24 97 55q-80 40 -80 92q0 44 60 99.5t105 55.5q57 0 116 -55l-60 -56q-46 32 -67 32
q-62 0 -86 -53q31 -63 98 -75q71 16 138 35z" />
    <glyph glyph-name="yehwithhamzaabovefinal" unicode="&#x626;" horiz-adv-x="1165" arabic-form="final" 
d="M1191 1q-166 0 -181 -1q-109 -11 -164 -65l143 -51q111 -42 111 -66q0 -158 -47 -204t-272 -89q-198 -38 -303 -38q-134 0 -230 58q-114 69 -114 195q0 107 37 219q40 123 106 193q40 -12 55 -31q-97 -167 -97 -274q0 -217 323 -217q259 0 463 84l8 12l-5 11l-135 49
q-78 31 -127 66q0 136 73.5 212t208.5 76h147v-139zM706 510q0 -41 -29 -85q-124 0 -297 -111v12q0 19 5 54q33 24 97 55q-80 40 -80 92q0 44 60 99.5t105 55.5q57 0 116 -55l-60 -56q-46 32 -67 32q-62 0 -86 -53q31 -63 98 -75q71 16 138 35z" />
    <glyph glyph-name="yehwithhamzaaboveinitial" unicode="&#x626;" horiz-adv-x="338" arabic-form="initial" 
d="M337 794q0 -41 -29 -85q-124 0 -297 -111v12q0 19 5 54q33 24 97 55q-80 40 -80 92q0 44 60 99.5t105 55.5q57 0 116 -55l-60 -56q-46 32 -67 32q-62 0 -86 -53q31 -63 98 -75q71 16 138 35zM336 264q0 -99 -88 -181t-188 -82h-94v139q280 0 280 101l-76 130
q18 61 64 167l6 -3q96 -148 96 -271z" />
    <glyph glyph-name="yehwithhamzaabovemedial" unicode="&#x626;" horiz-adv-x="473" arabic-form="medial" 
d="M403 724q-15 -84 -50 -84q-73 0 -276 -111q0 22 5 66q25 20 97 54q-80 38 -80 93q0 39 62.5 96.5t102.5 57.5q60 0 116 -54l-60 -57q-36 33 -67 33q-22 0 -49 -16.5t-36 -36.5q12 -24 39 -49q31 -27 55 -27zM498 1h-76q-109 0 -181 106q-74 -106 -208 -106h-59v139
q124 0 176 39q60 46 60 166q20 8 35 8l30 -8q0 -137 50 -175q39 -30 173 -30v-139z" />
    <glyph glyph-name="alefisolated" unicode="&#x627;" horiz-adv-x="283" arabic-form="isolated" 
d="M276 101q0 -33 -72 -126q-10 17 -12 119q-2 73 -1 194q2 160 2 139q0 489 -62 682q33 43 107 121l5 -8q33 -164 33 -389v-732z" />
    <glyph glyph-name="aleffinal" unicode="&#x627;" horiz-adv-x="416" arabic-form="final" 
d="M441 1h-59q-185 0 -191 332l-8 421q-3 138 -52 325q35 58 100 119q53 -134 53 -566q0 -40 -6 -118.5t-6 -118.5q0 -255 169 -255v-139z" />
    <glyph glyph-name="behisolated" unicode="&#x628;" horiz-adv-x="1309" arabic-form="isolated" 
d="M1308 294q0 -137 -113 -200q-68 -37 -235 -64q-252 -40 -400 -40q-164 0 -275 47q-154 64 -154 204q0 72 29 155q31 88 77 136l43 -28q-56 -118 -56 -174q0 -199 399 -199q146 0 312 23q218 29 286 82q-1 31 -73 160q53 94 85 141q13 -13 44 -114t31 -129zM796 -259
l-102 -108l-116 100l108 112z" />
    <glyph glyph-name="behfinal" unicode="&#x628;" horiz-adv-x="1390" arabic-form="final" 
d="M1416 1h-60q-176 0 -176 162q-109 -87 -303 -134q-164 -39 -333 -39q-160 0 -268 50q-145 67 -145 208q0 63 33 152.5t74 131.5l43 -28q-57 -97 -57 -177q0 -196 399 -196q485 0 604 253l51 -18q-19 -69 -19 -118q0 -73 46 -95q28 -13 111 -13v-139zM765 -259l-101 -108
l-117 100l109 112z" />
    <glyph glyph-name="behinitial" unicode="&#x628;" horiz-adv-x="338" arabic-form="initial" 
d="M336 264q0 -99 -88 -181t-188 -82h-94v139q280 0 280 101l-76 130q18 61 64 167l6 -3q96 -148 96 -271zM315 -255l-102 -107l-116 99l109 112z" />
    <glyph glyph-name="behmedial" unicode="&#x628;" horiz-adv-x="473" arabic-form="medial" 
d="M498 1h-76q-109 0 -181 106q-74 -106 -208 -106h-59v139q124 0 176 39q60 46 60 166q20 8 35 8l30 -8q0 -137 50 -175q39 -30 173 -30v-139zM362 -255l-101 -107l-117 99l109 112z" />
    <glyph glyph-name="tehmarbutaisolated" unicode="&#x629;" horiz-adv-x="599" arabic-form="isolated" 
d="M598 244q0 -118 -88 -184q-79 -59 -198 -59q-78 0 -128 43q-53 45 -53 121q0 73 62 222l100 220q127 -55 207 -140q98 -103 98 -223zM511 196q0 80 -68 145q-36 35 -136 97q-80 -158 -80 -218q0 -36 40 -62q35 -24 73 -24t98 17q73 20 73 45zM444 749l-13 -3l-14 3
q-65 66 -95 103l3 14q66 64 104 96q41 -32 105 -96l6 -14zM311 843l-91 -94l-12 -3l-16 3q-46 44 -96 101l4 16q65 64 105 96q41 -32 106 -96l3 -11z" />
    <glyph glyph-name="tehmarbutafinal" unicode="&#x629;" horiz-adv-x="773" arabic-form="final" 
d="M799 1h-33q-88 0 -138 65q-30 37 -69 143q-30 -35 -94 -100q-88 0 -189 19q-145 28 -145 79q0 24 61 181q80 69 291 151l-23 133q18 60 67 136l72 -371q72 -297 161 -297h39v-139zM548 244q-11 59 -45 203q-94 -35 -141 -58q-96 -47 -113 -88q15 -45 299 -57zM528 889
l-13 -3l-14 3q-65 66 -95 103l3 14q66 64 104 96q41 -32 105 -96l6 -14zM395 983l-91 -94l-12 -3l-16 3q-47 46 -96 101l4 16q65 64 105 96q41 -32 106 -96l3 -11z" />
    <glyph glyph-name="tehisolated" unicode="&#x62a;" horiz-adv-x="1309" arabic-form="isolated" 
d="M911 586l-96 -90l-95 96l96 90zM696 588l-96 -90l-95 96l96 89zM1308 294q0 -137 -113 -200q-68 -37 -235 -64q-252 -40 -400 -40q-164 0 -275 47q-154 64 -154 204q0 72 29 155q31 88 77 136l43 -28q-56 -118 -56 -174q0 -199 399 -199q146 0 312 23q218 29 286 82
q-1 31 -73 160q53 94 85 141q13 -13 44 -114t31 -129z" />
    <glyph glyph-name="tehfinal" unicode="&#x62a;" horiz-adv-x="1390" arabic-form="final" 
d="M1416 1h-60q-176 0 -176 162q-109 -87 -303 -134q-164 -39 -333 -39q-160 0 -268 50q-145 67 -145 208q0 63 33 152.5t74 131.5l43 -28q-57 -97 -57 -177q0 -196 399 -196q485 0 604 253l51 -18q-19 -69 -19 -118q0 -73 46 -95q28 -13 111 -13v-139zM911 586l-96 -90
l-95 96l96 90zM696 588l-96 -90l-95 96l96 89z" />
    <glyph glyph-name="tehinitial" unicode="&#x62a;" horiz-adv-x="395" arabic-form="initial" 
d="M336 264q0 -99 -88 -181t-188 -82h-94v139q280 0 280 101l-76 130q18 61 64 167l6 -3q96 -148 96 -271zM397 703l-97 -90l-95 96l97 89zM182 705l-97 -90l-95 95l97 90z" />
    <glyph glyph-name="tehmedial" unicode="&#x62a;" horiz-adv-x="473" arabic-form="medial" 
d="M498 1h-76q-109 0 -181 106q-74 -106 -208 -106h-59v139q124 0 176 39q60 46 60 166q20 8 35 8l30 -8q0 -137 50 -175q39 -30 173 -30v-139zM397 703l-97 -90l-95 96l97 89zM182 705l-97 -90l-95 95l97 90z" />
    <glyph glyph-name="thehisolated" unicode="&#x62b;" horiz-adv-x="1309" arabic-form="isolated" 
d="M911 586l-96 -90l-95 96l96 90zM696 588l-96 -90l-95 96l96 89zM1308 294q0 -137 -113 -200q-68 -37 -235 -64q-252 -40 -400 -40q-164 0 -275 47q-154 64 -154 204q0 72 29 155q31 88 77 136l43 -28q-56 -118 -56 -174q0 -199 399 -199q146 0 312 23q218 29 286 82
q-1 31 -73 160q53 94 85 141q13 -13 44 -114t31 -129zM809 738l-102 -107l-116 99l109 112z" />
    <glyph glyph-name="thehfinal" unicode="&#x62b;" horiz-adv-x="1390" arabic-form="final" 
d="M1416 1h-60q-176 0 -176 162q-109 -87 -303 -134q-164 -39 -333 -39q-160 0 -268 50q-145 67 -145 208q0 63 33 152.5t74 131.5l43 -28q-57 -97 -57 -177q0 -196 399 -196q485 0 604 253l51 -18q-19 -69 -19 -118q0 -73 46 -95q28 -13 111 -13v-139zM911 586l-96 -90
l-95 96l96 90zM696 588l-96 -90l-95 96l96 89zM809 738l-102 -107l-116 99l109 112z" />
    <glyph glyph-name="thehinitial" unicode="&#x62b;" horiz-adv-x="395" arabic-form="initial" 
d="M336 264q0 -99 -88 -181t-188 -82h-94v139q280 0 280 101l-76 130q18 61 64 167l6 -3q96 -148 96 -271zM397 703l-97 -90l-95 96l97 89zM182 705l-97 -90l-95 95l97 90zM304 843l-102 -107l-116 99l109 112z" />
    <glyph glyph-name="thehmedial" unicode="&#x62b;" horiz-adv-x="473" arabic-form="medial" 
d="M498 1h-76q-109 0 -181 106q-74 -106 -208 -106h-59v139q124 0 176 39q60 46 60 166q20 8 35 8l30 -8q0 -137 50 -175q39 -30 173 -30v-139zM397 703l-97 -90l-95 96l97 89zM182 705l-97 -90l-95 95l97 90zM304 843l-102 -107l-116 99l109 112z" />
    <glyph glyph-name="jeemisolated" unicode="&#x62c;" horiz-adv-x="947" arabic-form="isolated" 
d="M660 -520q-208 0 -350 77q-179 96 -179 286q0 195 150 338q103 98 324 201q-226 68 -288 68q-45 0 -97 -98l-51 12q98 238 153 238q46 0 212.5 -54.5t295.5 -54.5q51 0 102 7l9 -6q-16 -68 -57 -130q-199 0 -396 -128q-220 -143 -220 -330q0 -166 165 -245
q125 -60 311 -60q44 0 132 11t131 11l8 -4q-50 -96 -154 -124q-56 -15 -201 -15zM763 -45l-109 -115l-123 106l115 120z" />
    <glyph glyph-name="jeemfinal" unicode="&#x62c;" horiz-adv-x="1048" arabic-form="final" 
d="M1074 1h-73q-145 0 -200 107q-40 78 -40 238q-187 -48 -321 -149q-171 -128 -171 -291q0 -304 512 -304q49 0 145.5 14.5t144.5 14.5l8 -4q-11 -27 -75 -99q-125 -48 -344 -48q-208 0 -350 77q-179 96 -179 286q0 332 474 539q-226 68 -288 68q-43 0 -97 -98l-51 12
q98 238 153 238q37 0 226.5 -53.5t293.5 -53.5q33 0 93.5 12t89.5 13l6 -4q-4 -23 -55 -140q-52 0 -146 -16q0 -129 59 -177q53 -43 185 -43v-139zM679 -60l-102 -108l-116 100l109 112z" />
    <glyph glyph-name="jeeminitial" unicode="&#x62c;" horiz-adv-x="841" arabic-form="initial" 
d="M775 170q-45 6 -82 6q-110 0 -315.5 -87.5t-316.5 -87.5h-87v139q358 -3 565 118q-62 31 -178 111t-180 111q-43 -18 -96 -97l-41 27q97 211 156 211q43 0 180 -98q172 -122 192 -133q95 -51 270 -96zM479 -250l-101 -107l-116 99l108 112z" />
    <glyph glyph-name="jeemmedial" unicode="&#x62c;" horiz-adv-x="1084" arabic-form="medial" 
d="M1111 1h-45q-163 0 -237.5 68.5t-74.5 217.5q0 26 2 55q-75 -38 -211 -139t-207 -139q-122 -63 -241 -63h-123v139q207 0 345 56q104 43 298 182q-61 3 -225 71q-160 66 -189 66q-35 0 -98 -95l-50 12q50 115 62 135q51 93 98 93q37 0 231 -80.5t296 -80.5q127 0 280 26
l4 -6q-6 -44 -61 -131q-77 -1 -149 -24q0 -131 87 -183q67 -41 208 -41v-139zM705 -259l-102 -108l-116 100l109 112z" />
    <glyph glyph-name="hahisolated" unicode="&#x62d;" horiz-adv-x="947" arabic-form="isolated" 
d="M660 -520q-208 0 -350 77q-179 96 -179 286q0 195 150 338q103 98 324 201q-226 68 -288 68q-45 0 -97 -98l-51 12q98 238 153 238q46 0 212.5 -54.5t295.5 -54.5q51 0 102 7l9 -6q-16 -68 -57 -130q-199 0 -396 -128q-220 -143 -220 -330q0 -166 165 -245
q125 -60 311 -60q44 0 132 11t131 11l8 -4q-50 -96 -154 -124q-56 -15 -201 -15z" />
    <glyph glyph-name="hahfinal" unicode="&#x62d;" horiz-adv-x="1048" arabic-form="final" 
d="M1074 1h-73q-145 0 -200 107q-40 78 -40 238q-187 -48 -321 -149q-171 -128 -171 -291q0 -304 512 -304q49 0 145.5 14.5t144.5 14.5l8 -4q-11 -27 -75 -99q-125 -48 -344 -48q-208 0 -350 77q-179 96 -179 286q0 332 474 539q-226 68 -288 68q-43 0 -97 -98l-51 12
q98 238 153 238q37 0 226.5 -53.5t293.5 -53.5q33 0 93.5 12t89.5 13l6 -4q-4 -23 -55 -140q-52 0 -146 -16q0 -129 59 -177q53 -43 185 -43v-139z" />
    <glyph glyph-name="hahinitial" unicode="&#x62d;" horiz-adv-x="841" arabic-form="initial" 
d="M775 170q-45 6 -82 6q-110 0 -315.5 -87.5t-316.5 -87.5h-87v139q358 -3 565 118q-62 31 -178 111t-180 111q-43 -18 -96 -97l-41 27q97 211 156 211q43 0 180 -98q172 -122 192 -133q95 -51 270 -96z" />
    <glyph glyph-name="hahmedial" unicode="&#x62d;" horiz-adv-x="1084" arabic-form="medial" 
d="M1111 1h-45q-163 0 -237.5 68.5t-74.5 217.5q0 26 2 55q-75 -38 -211 -139t-207 -139q-122 -63 -241 -63h-123v139q207 0 345 56q104 43 298 182q-61 3 -225 71q-160 66 -189 66q-35 0 -98 -95l-50 12q50 115 62 135q51 93 98 93q37 0 231 -80.5t296 -80.5q127 0 280 26
l4 -6q-6 -44 -61 -131q-77 -1 -149 -24q0 -131 87 -183q67 -41 208 -41v-139z" />
    <glyph glyph-name="khahisolated" unicode="&#x62e;" horiz-adv-x="947" arabic-form="isolated" 
d="M687 933l-101 -108l-116 99l108 112zM660 -520q-208 0 -350 77q-179 96 -179 286q0 195 150 338q103 98 324 201q-226 68 -288 68q-45 0 -97 -98l-51 12q98 238 153 238q46 0 212.5 -54.5t295.5 -54.5q51 0 102 7l9 -6q-16 -68 -57 -130q-199 0 -396 -128
q-220 -143 -220 -330q0 -166 165 -245q125 -60 311 -60q44 0 132 11t131 11l8 -4q-50 -96 -154 -124q-56 -15 -201 -15z" />
    <glyph glyph-name="khahfinal" unicode="&#x62e;" horiz-adv-x="1048" arabic-form="final" 
d="M765 923l-101 -107l-117 100l109 112zM1074 1h-73q-145 0 -200 107q-40 78 -40 238q-187 -48 -321 -149q-171 -128 -171 -291q0 -304 512 -304q49 0 145.5 14.5t144.5 14.5l8 -4q-11 -27 -75 -99q-125 -48 -344 -48q-208 0 -350 77q-179 96 -179 286q0 332 474 539
q-226 68 -288 68q-43 0 -97 -98l-51 12q98 238 153 238q37 0 226.5 -53.5t293.5 -53.5q33 0 93.5 12t89.5 13l6 -4q-4 -23 -55 -140q-52 0 -146 -16q0 -129 59 -177q53 -43 185 -43v-139z" />
    <glyph glyph-name="khahinitial" unicode="&#x62e;" horiz-adv-x="841" arabic-form="initial" 
d="M470 928l-100 -107l-117 100l108 111zM775 170q-45 6 -82 6q-110 0 -315.5 -87.5t-316.5 -87.5h-87v139q358 -3 565 118q-62 31 -178 111t-180 111q-43 -18 -96 -97l-41 27q97 211 156 211q43 0 180 -98q172 -122 192 -133q95 -51 270 -96z" />
    <glyph glyph-name="khahmedial" unicode="&#x62e;" horiz-adv-x="1084" arabic-form="medial" 
d="M687 936l-101 -107l-116 100l108 112zM1111 1h-45q-163 0 -237.5 68.5t-74.5 217.5q0 26 2 55q-75 -38 -211 -139t-207 -139q-122 -63 -241 -63h-123v139q207 0 345 56q104 43 298 182q-61 3 -225 71q-160 66 -189 66q-35 0 -98 -95l-50 12q50 115 62 135q51 93 98 93
q37 0 231 -80.5t296 -80.5q127 0 280 26l4 -6q-6 -44 -61 -131q-77 -1 -149 -24q0 -131 87 -183q67 -41 208 -41v-139z" />
    <glyph glyph-name="dalisolated" unicode="&#x62f;" horiz-adv-x="640" arabic-form="isolated" 
d="M640 303q0 -138 -36.5 -189t-162.5 -83.5t-179 -32.5q-90 0 -127 22l-2 35q-5 80 17 168l21 7l19 -7q0 -53 22 -69q17 -13 69 -13q56 0 148 20q107 24 129 52q3 26 3 53q0 204 -301 363q7 53 12 79q12 58 28 72q129 -34 236 -190q104 -150 104 -287z" />
    <glyph glyph-name="dalfinal" unicode="&#x62f;" horiz-adv-x="780" arabic-form="final" 
d="M806 1h-47q-108 0 -159 186q-34 -117 -124 -161q-71 -34 -214 -34q-101 0 -127 15l-2 34q-5 87 17 176l21 6l19 -6q0 -56 25 -73q19 -12 79 -12q63 0 155 25q107 30 131 69l-140 441q49 139 73 154l94 -382q85 -299 165 -299h34v-139z" />
    <glyph glyph-name="thalisolated" unicode="&#x630;" horiz-adv-x="640" arabic-form="isolated" 
d="M375 1127l-101 -107l-117 100l109 112zM640 303q0 -138 -36.5 -189t-162.5 -83.5t-179 -32.5q-90 0 -127 22l-2 35q-5 80 17 168l21 7l19 -7q0 -53 22 -69q17 -13 69 -13q56 0 148 20q107 24 129 52q3 26 3 53q0 204 -301 363q7 53 12 79q12 58 28 72q129 -34 236 -190
q104 -150 104 -287z" />
    <glyph glyph-name="thalfinal" unicode="&#x630;" horiz-adv-x="780" arabic-form="final" 
d="M553 1119l-102 -108l-116 100l109 112zM806 1h-47q-108 0 -159 186q-34 -117 -124 -161q-71 -34 -214 -34q-101 0 -127 15l-2 34q-5 87 17 176l21 6l19 -6q0 -56 25 -73q19 -12 79 -12q63 0 155 25q107 30 131 69l-140 441q49 139 73 154l94 -382q85 -299 165 -299h34
v-139z" />
    <glyph glyph-name="rehisolated" unicode="&#x631;" horiz-adv-x="574" arabic-form="isolated" 
d="M571 109q0 -130 -97 -330q-108 -225 -218 -225q-34 0 -96 16q-67 17 -89 34q234 160 260 181q161 134 161 249q0 78 -122 223q15 60 23 86q16 50 36 81q34 -14 89 -144q53 -124 53 -171z" />
    <glyph glyph-name="rehfinal" unicode="&#x631;" horiz-adv-x="696" arabic-form="final" 
d="M722 1h-31q-76 0 -108 41q0 -118 -113 -319q-123 -218 -225 -218q-26 0 -89 21t-87 36q186 112 272 185q166 140 166 261q0 63 -131 224q17 60 60 167q47 -35 82 -109q39 -82 61 -104q47 -46 143 -46v-139z" />
    <glyph glyph-name="zainisolated" unicode="&#x632;" horiz-adv-x="574" arabic-form="isolated" 
d="M545 737l-102 -107l-116 100l108 112zM571 109q0 -130 -97 -330q-108 -225 -218 -225q-34 0 -96 16q-67 17 -89 34q234 160 260 181q161 134 161 249q0 78 -122 223q15 60 23 86q16 50 36 81q34 -14 89 -144q53 -124 53 -171z" />
    <glyph glyph-name="zainfinal" unicode="&#x632;" horiz-adv-x="696" arabic-form="final" 
d="M561 711l-101 -107l-116 100l108 111zM732 1h-33q-75 0 -108 41q0 -104 -110 -313q-118 -224 -205 -224q-113 0 -199 57q240 157 274 185q165 135 165 261q0 61 -132 224q22 74 61 167q46 -38 83 -113q39 -79 63 -102q47 -44 141 -44v-139z" />
    <glyph glyph-name="seenisolated" unicode="&#x633;" horiz-adv-x="1716" arabic-form="isolated" 
d="M1714 266q0 -87 -79 -175q-82 -90 -168 -90q-118 0 -151 117q-65 -117 -165 -117q-53 0 -86 25l3 -162q3 -171 -223 -281q-186 -91 -381 -91q-141 0 -232 68q-101 76 -101 212q0 86 44 202q40 105 95 186q34 -3 53 -32q-81 -195 -81 -279q0 -207 241 -207q116 0 273 49
q183 57 226 135l1 56q4 164 -101 326q24 80 63 174q26 -24 51 -93q28 -75 48 -101q36 -47 103 -47q111 0 144 204l31 8l33 -8q0 -92 16 -134q27 -68 104 -68q114 0 153 98q-13 31 -86 137q25 69 72 162q27 -16 65 -127q35 -104 35 -147z" />
    <glyph glyph-name="seenfinal" unicode="&#x633;" horiz-adv-x="1798" arabic-form="final" 
d="M1824 1h-66q-70 0 -130 99q-64 -99 -171 -99q-108 0 -145 106q-51 -106 -161 -106q-53 0 -86 25l4 -169q0 -167 -227 -275q-188 -90 -378 -90q-141 0 -232 68q-101 76 -101 212q0 82 45 201q43 116 96 184q28 -1 52 -29q-82 -187 -82 -279q0 -101 73 -157q66 -50 170 -50
q138 0 298 57q201 71 201 179q0 174 -102 330q24 81 63 174q26 -24 51 -93q28 -75 48 -101q36 -47 103 -47q112 0 145 204l30 8l33 -8q0 -97 12 -133q22 -72 97 -72q140 0 140 208l32 9l32 -9q0 -130 14 -157q27 -51 142 -51v-139z" />
    <glyph glyph-name="seeninitial" unicode="&#x633;" horiz-adv-x="932" arabic-form="initial" 
d="M931 266q0 -88 -79 -176q-82 -89 -169 -89q-120 0 -150 114q-60 -114 -157 -114q-101 0 -160 111q-43 -76 -100 -97q-38 -14 -142 -14v139q120 0 169 42q54 46 54 164l34 9l31 -9v-34q-1 -78 12 -114q22 -57 89 -57q74 0 113 68q32 56 32 136l31 9l33 -9q0 -95 15 -135
q26 -67 105 -67q42 0 94 28q59 33 59 70q-29 54 -86 137q29 74 72 162q23 -9 63 -125q37 -110 37 -149z" />
    <glyph glyph-name="seenmedial" unicode="&#x633;" horiz-adv-x="1053" arabic-form="medial" 
d="M1079 1h-50q-95 0 -154 107q-52 -107 -171 -107q-105 0 -147 110q-59 -110 -160 -110q-64 0 -104 27q-32 23 -71 82q-42 -74 -105 -95q-40 -14 -143 -14v139q124 -1 173 39q54 45 55 167l32 9l32 -9v-28q-1 -94 16 -127q26 -50 112 -50q139 0 141 204l32 8l33 -8
q1 -99 12 -134q23 -71 99 -71q141 0 141 208l31 7l34 -7q0 -122 20 -156q31 -52 142 -52v-139z" />
    <glyph glyph-name="sheenisolated" unicode="&#x634;" horiz-adv-x="1716" arabic-form="isolated" 
d="M1447 925l-98 -90l-95 96l97 90zM1554 746l-97 -91l-96 95l98 91zM1339 747l-97 -90l-95 95l97 90zM1714 266q0 -87 -79 -175q-82 -90 -168 -90q-118 0 -151 117q-65 -117 -165 -117q-53 0 -86 25l3 -162q3 -171 -223 -281q-186 -91 -381 -91q-141 0 -232 68
q-101 76 -101 212q0 86 44 202q40 105 95 186q34 -3 53 -32q-81 -195 -81 -279q0 -207 241 -207q116 0 273 49q183 57 226 135l1 56q4 164 -101 326q24 80 63 174q26 -24 51 -93q28 -75 48 -101q36 -47 103 -47q111 0 144 204l31 8l33 -8q0 -92 16 -134q27 -68 104 -68
q114 0 153 98q-13 31 -86 137q25 69 72 162q27 -16 65 -127q35 -104 35 -147z" />
    <glyph glyph-name="sheenfinal" unicode="&#x634;" horiz-adv-x="1798" arabic-form="final" 
d="M1494 865l-97 -90l-96 95l97 90zM1601 684l-97 -89l-95 95l97 90zM1386 686l-97 -90l-95 96l97 90zM1824 1h-66q-70 0 -130 99q-64 -99 -171 -99q-108 0 -145 106q-51 -106 -161 -106q-53 0 -86 25l4 -169q0 -167 -227 -275q-188 -90 -378 -90q-141 0 -232 68
q-101 76 -101 212q0 82 45 201q43 116 96 184q28 -1 52 -29q-82 -187 -82 -279q0 -101 73 -157q66 -50 170 -50q138 0 298 57q201 71 201 179q0 174 -102 330q24 81 63 174q26 -24 51 -93q28 -75 48 -101q36 -47 103 -47q112 0 145 204l30 8l33 -8q0 -97 12 -133
q22 -72 97 -72q140 0 140 208l32 9l32 -9q0 -130 14 -157q27 -51 142 -51v-139z" />
    <glyph glyph-name="sheeninitial" unicode="&#x634;" horiz-adv-x="932" arabic-form="initial" 
d="M719 922l-98 -91l-95 95l97 91zM826 741l-97 -90l-96 96l98 89zM611 743l-97 -90l-95 95l97 90zM931 266q0 -88 -79 -176q-82 -89 -169 -89q-120 0 -150 114q-60 -114 -157 -114q-101 0 -160 111q-43 -76 -100 -97q-38 -14 -142 -14v139q120 0 169 42q54 46 54 164l34 9
l31 -9v-34q-1 -78 12 -114q22 -57 89 -57q74 0 113 68q32 56 32 136l31 9l33 -9q0 -95 15 -135q26 -67 105 -67q42 0 94 28q59 33 59 70q-29 54 -86 137q29 74 72 162q23 -9 63 -125q37 -110 37 -149z" />
    <glyph glyph-name="sheenmedial" unicode="&#x634;" horiz-adv-x="1053" arabic-form="medial" 
d="M784 860l-98 -89l-95 95l97 90zM891 680l-97 -90l-96 95l98 90zM676 682l-97 -90l-96 95l98 90zM1079 1h-50q-95 0 -154 107q-52 -107 -171 -107q-105 0 -147 110q-59 -110 -160 -110q-64 0 -104 27q-32 23 -71 82q-42 -74 -105 -95q-40 -14 -143 -14v139q124 -1 173 39
q54 45 55 167l32 9l32 -9v-28q-1 -94 16 -127q26 -50 112 -50q139 0 141 204l32 8l33 -8q1 -99 12 -134q23 -71 99 -71q141 0 141 208l31 7l34 -7q0 -122 20 -156q31 -52 142 -52v-139z" />
    <glyph glyph-name="sadisolated" unicode="&#x635;" horiz-adv-x="1920" arabic-form="isolated" 
d="M1917 276q0 -97 -209 -191q-185 -84 -302 -84h-264q-51 0 -77 25l3 -162q3 -174 -222 -281q-183 -88 -382 -88q-140 0 -231 67q-102 75 -102 210q0 82 45 201q43 116 96 184q26 -6 51 -26q-81 -191 -81 -282q0 -107 84 -162q72 -47 185 -47q121 0 252 51q135 52 218 134
q5 63 5 73q0 71 -30.5 162.5t-73.5 147.5q46 158 63 174q15 -15 67 -134q42 -96 99 -102q74 44 181.5 152t166.5 146q105 66 234 66q92 0 158 -70.5t66 -163.5zM1798 236q0 63 -58.5 111t-123.5 48q-147 0 -398 -257h229q75 0 197 25q154 32 154 73z" />
    <glyph glyph-name="sadfinal" unicode="&#x635;" horiz-adv-x="1980" arabic-form="final" 
d="M2006 1h-167q-48 0 -142 19.5t-142 19.5q-72 0 -214 -19.5t-214 -19.5q-38 0 -62 25l3 -162q3 -174 -222 -281q-183 -88 -382 -88q-140 0 -231 67q-102 75 -102 210q0 82 45 201q43 116 96 184q34 -7 52 -30q-82 -183 -82 -278q0 -209 269 -209q121 0 253.5 51t216.5 134
q5 63 5 73q0 71 -30.5 162.5t-73.5 147.5q46 158 63 174q10 -9 72 -136q51 -105 102 -105q16 0 112 99q121 123 202 182q134 99 242 99q100 0 174.5 -65t74.5 -163q0 -46 -139 -153h221v-139zM1808 255q0 60 -64 108q-60 44 -122 44q-96 0 -220 -98q-42 -33 -184 -171h229
q75 0 204 32q157 39 157 85z" />
    <glyph glyph-name="sadinitial" unicode="&#x635;" horiz-adv-x="1173" arabic-form="initial" 
d="M1172 276q0 -100 -209 -193q-182 -82 -303 -82h-287q-113 0 -156 112q-38 -73 -102 -96q-43 -16 -141 -16v139q122 0 166 42q41 40 55 162l31 8l32 -8q0 -106 10 -136q21 -69 103 -69q47 35 165 150q109 106 178 151q106 69 210 69q102 0 175 -66t73 -167zM1052 236
q0 64 -60 113q-56 46 -121 46q-96 0 -221 -93q-55 -41 -186 -164h237q76 0 198 25q153 32 153 73z" />
    <glyph glyph-name="sadmedial" unicode="&#x635;" horiz-adv-x="1235" arabic-form="medial" 
d="M1260 1h-201q-39 0 -116 15.5t-116 15.5q-36 0 -105 -15.5t-105 -15.5h-244q-113 0 -156 112q-38 -73 -101 -96q-44 -16 -142 -16v139q122 0 166 42q41 40 55 162l31 6l32 -6q0 -114 10 -142q23 -63 116 -63l244 237q161 133 296 133q96 0 170 -64q78 -66 78 -161
q-44 -89 -133 -144h221v-139zM1052 236q0 64 -60 113q-56 46 -121 46q-157 0 -399 -257h229q76 0 198 25q153 32 153 73z" />
    <glyph glyph-name="dadisolated" unicode="&#x636;" horiz-adv-x="1920" arabic-form="isolated" 
d="M1679 881l-101 -108l-116 99l108 113zM1917 276q0 -97 -209 -191q-185 -84 -302 -84h-264q-51 0 -77 25l3 -162q3 -174 -222 -281q-183 -88 -382 -88q-140 0 -231 67q-102 75 -102 210q0 82 45 201q43 116 96 184q26 -6 51 -26q-81 -191 -81 -282q0 -107 84 -162
q72 -47 185 -47q121 0 252 51q135 52 218 134q5 63 5 73q0 71 -30.5 162.5t-73.5 147.5q46 158 63 174q15 -15 67 -134q42 -96 99 -102q74 44 181.5 152t166.5 146q105 66 234 66q92 0 158 -70.5t66 -163.5zM1798 236q0 63 -58.5 111t-123.5 48q-147 0 -398 -257h229
q75 0 197 25q154 32 154 73z" />
    <glyph glyph-name="dadfinal" unicode="&#x636;" horiz-adv-x="1980" arabic-form="final" 
d="M1688 884l-102 -107l-115 100l108 112zM2006 1h-167q-48 0 -142 19.5t-142 19.5q-72 0 -214 -19.5t-214 -19.5q-38 0 -62 25l3 -162q3 -174 -222 -281q-183 -88 -382 -88q-140 0 -231 67q-102 75 -102 210q0 82 45 201q43 116 96 184q34 -7 52 -30q-82 -183 -82 -278
q0 -209 269 -209q121 0 253.5 51t216.5 134q5 63 5 73q0 71 -30.5 162.5t-73.5 147.5q46 158 63 174q10 -9 72 -136q51 -105 102 -105q16 0 112 99q121 123 202 182q134 99 242 99q100 0 174.5 -65t74.5 -163q0 -46 -139 -153h221v-139zM1808 255q0 60 -64 108
q-60 44 -122 44q-96 0 -220 -98q-42 -33 -184 -171h229q75 0 204 32q157 39 157 85z" />
    <glyph glyph-name="dadinitial" unicode="&#x636;" horiz-adv-x="1173" arabic-form="initial" 
d="M956 871l-101 -107l-117 100l108 112zM1172 276q0 -100 -209 -193q-182 -82 -303 -82h-287q-113 0 -156 112q-38 -73 -102 -96q-43 -16 -141 -16v139q122 0 166 42q41 40 55 162l31 8l32 -8q0 -106 10 -136q21 -69 103 -69q47 35 165 150q109 106 178 151q106 69 210 69
q102 0 175 -66t73 -167zM1052 236q0 64 -60 113q-56 46 -121 46q-96 0 -221 -93q-55 -41 -186 -164h237q76 0 198 25q153 32 153 73z" />
    <glyph glyph-name="dadmedial" unicode="&#x636;" horiz-adv-x="1235" arabic-form="medial" 
d="M956 868l-101 -108l-117 99l108 113zM1260 1h-201q-39 0 -116 15.5t-116 15.5q-36 0 -105 -15.5t-105 -15.5h-244q-113 0 -156 112q-38 -73 -101 -96q-44 -16 -142 -16v139q122 0 166 42q41 40 55 162l31 6l32 -6q0 -114 10 -142q23 -63 116 -63l244 237q161 133 296 133
q96 0 170 -64q78 -66 78 -161q-44 -89 -133 -144h221v-139zM1052 236q0 64 -60 113q-56 46 -121 46q-157 0 -399 -257h229q76 0 198 25q153 32 153 73z" />
    <glyph glyph-name="tahisolated" unicode="&#x637;" horiz-adv-x="1130" arabic-form="isolated" 
d="M1128 276q-73 -153 -275 -226q-158 -57 -361 -57h-146q-60 0 -214 162q153 -15 201 -14h10v79q0 310 -7 434q-15 246 -66 428l98 119q38 -79 105 -241l-70 14q21 -164 30 -737q268 272 449 272q97 0 171.5 -68t74.5 -165zM1009 236q0 64 -60 113q-56 46 -121 46
q-148 0 -408 -257h238q76 0 198 25q153 32 153 73z" />
    <glyph glyph-name="tahfinal" unicode="&#x637;" horiz-adv-x="1200" arabic-form="final" 
d="M1226 1h-202q-37 0 -110.5 16t-110.5 16q-51 0 -155 -20t-156 -20h-146q-60 0 -214 162q153 -15 201 -14h10v50q0 319 -7 449q-15 261 -66 442l98 119q55 -115 105 -241q-38 4 -70 14q21 -164 30 -737q270 284 458 284q104 0 175 -67t71 -170q-45 -75 -150 -144h239v-139
zM1021 246q0 62 -57.5 110t-121.5 48q-94 0 -227 -98q-59 -43 -195 -168q301 0 306 -1l-98 -2q76 1 220 33q173 38 173 78z" />
    <glyph glyph-name="tahinitial" unicode="&#x637;" horiz-adv-x="915" arabic-form="initial" 
d="M913 279q-134 -278 -637 -278h-302v139h152q-2 339 -9 480q-15 316 -63 462l97 119q56 -117 106 -241l-71 14q24 -154 28 -368q2 -184 3 -369q249 273 463 273q92 0 162.5 -69.5t70.5 -161.5zM792 236q0 64 -60 113q-56 46 -121 46q-95 0 -221 -94q-53 -40 -186 -165
q588 5 588 100z" />
    <glyph glyph-name="tahmedial" unicode="&#x637;" horiz-adv-x="985" arabic-form="medial" 
d="M1010 1h-202q-41 0 -120.5 15.5t-120.5 15.5q-49 0 -145.5 -15.5t-145.5 -15.5h-302v139h152q-2 339 -9 480q-15 316 -63 462l97 119q39 -79 106 -241q-31 0 -71 14q24 -154 28 -368q2 -184 3 -369q97 107 207 184q144 100 250 100q103 0 175 -67.5t72 -169.5
q-42 -75 -150 -144h239v-139zM804 246q0 62 -57.5 110t-120.5 48q-140 0 -422 -266q-19 0 152 7q100 4 150 -8l-95 -2q76 1 220 33q173 38 173 78z" />
    <glyph glyph-name="zahisolated" unicode="&#x638;" horiz-adv-x="1130" arabic-form="isolated" 
d="M878 868l-102 -108l-116 99l109 113zM1128 276q-73 -153 -275 -226q-158 -57 -361 -57h-146q-60 0 -214 162q153 -15 201 -14h10v79q0 310 -7 434q-15 246 -66 428l98 119q38 -79 105 -241l-70 14q21 -164 30 -737q268 272 449 272q97 0 171.5 -68t74.5 -165zM1009 236
q0 64 -60 113q-56 46 -121 46q-148 0 -408 -257h238q76 0 198 25q153 32 153 73z" />
    <glyph glyph-name="zahfinal" unicode="&#x638;" horiz-adv-x="1200" arabic-form="final" 
d="M886 884l-101 -107l-116 100l108 112zM1226 1h-202q-37 0 -110.5 16t-110.5 16q-51 0 -155 -20t-156 -20h-146q-60 0 -214 162q153 -15 201 -14h10v50q0 319 -7 449q-15 261 -66 442l98 119q55 -115 105 -241q-38 4 -70 14q21 -164 30 -737q270 284 458 284
q104 0 175 -67t71 -170q-45 -75 -150 -144h239v-139zM1021 246q0 62 -57.5 110t-121.5 48q-94 0 -227 -98q-59 -43 -195 -168q301 0 306 -1l-98 -2q76 1 220 33q173 38 173 78z" />
    <glyph glyph-name="zahinitial" unicode="&#x638;" horiz-adv-x="915" arabic-form="initial" 
d="M705 868l-102 -108l-116 99l109 113zM913 279q-134 -278 -637 -278h-302v139h152q-2 339 -9 480q-15 316 -63 462l97 119q56 -117 106 -241l-71 14q24 -154 28 -368q2 -184 3 -369q249 273 463 273q92 0 162.5 -69.5t70.5 -161.5zM792 236q0 64 -60 113q-56 46 -121 46
q-95 0 -221 -94q-53 -40 -186 -165q588 5 588 100z" />
    <glyph glyph-name="zahmedial" unicode="&#x638;" horiz-adv-x="985" arabic-form="medial" 
d="M705 863l-102 -107l-116 100l109 111zM1010 1h-202q-41 0 -120.5 15.5t-120.5 15.5q-49 0 -145.5 -15.5t-145.5 -15.5h-302v139h152q-2 339 -9 480q-15 316 -63 462l97 119q39 -79 106 -241q-31 0 -71 14q24 -154 28 -368q2 -184 3 -369q97 107 207 184q144 100 250 100
q103 0 175 -67.5t72 -169.5q-42 -75 -150 -144h239v-139zM804 246q0 62 -57.5 110t-120.5 48q-140 0 -422 -266q-19 0 152 7q100 4 150 -8l-95 -2q76 1 220 33q173 38 173 78z" />
    <glyph glyph-name="ainisolated" unicode="&#x639;" horiz-adv-x="869" arabic-form="isolated" 
d="M846 -495q-110 -25 -257 -25q-178 0 -305 76q-153 91 -153 257q0 229 279 418q-67 32 -110 90q-47 63 -47 133q0 90 94.5 178t185.5 88q39 0 116 -44q82 -47 82 -80l-4 -3q-25 0 -74.5 7.5t-74.5 7.5q-129 0 -237 -83q-2 -58 62.5 -128.5t122.5 -70.5t168 47.5t167 47.5
l3 -5q-29 -85 -67 -142q-204 -39 -342 -120q-192 -112 -192 -279q0 -160 150 -224q106 -45 310 -45q40 0 108.5 2t91.5 2l3 -4q-22 -45 -80 -101z" />
    <glyph glyph-name="ainfinal" unicode="&#x639;" horiz-adv-x="880" arabic-form="final" 
d="M906 1h-52q-150 0 -316 220q-132 -86 -187 -142q-94 -97 -94 -207q0 -273 465 -273q71 0 168 7l7 -3q-1 -24 -82 -102q-93 -21 -226 -21q-183 0 -307 73q-151 89 -151 259q0 149 111 276q70 79 236 196q-62 91 -183 91q22 158 240 158q56 0 126 -21q90 -26 90 -65
q0 -59 -47 -102q-15 -13 -98 -65q92 -86 133 -108q61 -32 167 -32v-139z" />
    <glyph glyph-name="aininitial" unicode="&#x639;" horiz-adv-x="752" arabic-form="initial" 
d="M683 169l-350 -110q-207 -58 -359 -58v139h27q136 -2 213 29q-121 57 -121 220q0 98 104 182q99 79 200 79q49 0 125 -46q80 -49 93 -93l-12 -4q-24 0 -70 10t-70 10q-177 0 -264 -52v-24q0 -79 58 -154q61 -80 138 -80q61 0 177 50t176 50l2 -4q-22 -71 -67 -144z" />
    <glyph glyph-name="ainmedial" unicode="&#x639;" horiz-adv-x="576" arabic-form="medial" 
d="M602 1h-43q-120 0 -231 122q-168 -122 -354 -122v139q196 -2 279 66q-59 90 -174 90q11 43 49 107q98 59 194 59q49 0 115 -24q81 -28 81 -66q0 -64 -116 -162q80 -70 200 -70v-139z" />
    <glyph glyph-name="ghainisolated" unicode="&#x63a;" horiz-adv-x="869" arabic-form="isolated" 
d="M587 1041l-101 -107l-116 99l108 112zM846 -495q-110 -25 -257 -25q-178 0 -305 76q-153 91 -153 257q0 229 279 418q-67 32 -110 90q-47 63 -47 133q0 90 94.5 178t185.5 88q39 0 116 -44q82 -47 82 -80l-4 -3q-25 0 -74.5 7.5t-74.5 7.5q-129 0 -237 -83
q-2 -58 62.5 -128.5t122.5 -70.5t168 47.5t167 47.5l3 -5q-29 -85 -67 -142q-204 -39 -342 -120q-192 -112 -192 -279q0 -160 150 -224q106 -45 310 -45q40 0 108.5 2t91.5 2l3 -4q-22 -45 -80 -101z" />
    <glyph glyph-name="ghainfinal" unicode="&#x63a;" horiz-adv-x="880" arabic-form="final" 
d="M605 923l-101 -107l-117 100l108 112zM906 1h-52q-150 0 -316 220q-132 -86 -187 -142q-94 -97 -94 -207q0 -273 465 -273q71 0 168 7l7 -3q-1 -24 -82 -102q-93 -21 -226 -21q-183 0 -307 73q-151 89 -151 259q0 149 111 276q70 79 236 196q-62 91 -183 91
q22 158 240 158q56 0 126 -21q90 -26 90 -65q0 -59 -47 -102q-15 -13 -98 -65q92 -86 133 -108q61 -32 167 -32v-139z" />
    <glyph glyph-name="ghaininitial" unicode="&#x63a;" horiz-adv-x="752" arabic-form="initial" 
d="M475 972l-102 -108l-116 99l109 112zM683 169l-350 -110q-207 -58 -359 -58v139h27q136 -2 213 29q-121 57 -121 220q0 98 104 182q99 79 200 79q49 0 125 -46q80 -49 93 -93l-12 -4q-24 0 -70 10t-70 10q-177 0 -264 -52v-24q0 -79 58 -154q61 -80 138 -80q61 0 177 50
t176 50l2 -4q-22 -71 -67 -144z" />
    <glyph glyph-name="ghainmedial" unicode="&#x63a;" horiz-adv-x="576" arabic-form="medial" 
d="M436 833l-102 -108l-115 100l108 111zM602 1h-43q-120 0 -231 122q-168 -122 -354 -122v139q196 -2 279 66q-59 90 -174 90q11 43 49 107q98 59 194 59q49 0 115 -24q81 -28 81 -66q0 -64 -116 -162q80 -70 200 -70v-139z" />
    <glyph glyph-name="fehisolated" unicode="&#x641;" horiz-adv-x="1343" arabic-form="isolated" 
d="M1198 1049l-100 -107l-117 100l108 111zM1341 382q0 -64 -14 -153q-17 -114 -44 -132q-159 -105 -696 -105q-456 0 -456 265q0 62 33 147t75 128l41 -27q-56 -116 -56 -174q0 -200 397 -200h196q268 0 420 82q27 46 24 97l-2 35q-87 -38 -169 -38q-87 0 -145 38
q-21 35 -21 119q0 87 46 192q54 125 128 125q118 0 187 -147q56 -119 56 -252zM1248 487q0 47 -59.5 96.5t-107.5 49.5q-33 0 -53 -51q-16 -41 -16 -81q0 -58 104 -58q88 0 132 44z" />
    <glyph glyph-name="fehfinal" unicode="&#x641;" horiz-adv-x="1417" arabic-form="final" 
d="M1250 954l-101 -108l-116 101l108 111zM1443 1h-63q-115 0 -236 84q-106 -74 -284 -90q-40 -3 -304 -3q-170 0 -278 49q-147 67 -147 216q0 146 107 275l42 -28q-56 -110 -56 -172q0 -201 397 -201h196q102 0 197 26q-78 108 -78 183q0 98 81 190q78 87 177 111
q149 -93 149 -283q0 -47 -30.5 -103.5t-68.5 -86.5q67 -28 199 -28v-139zM1255 352q0 30 -31 78q-34 52 -61 52q-86 0 -146 -148q16 -42 51 -83q42 -50 78 -50q32 0 72 60q37 56 37 91z" />
    <glyph glyph-name="fehinitial" unicode="&#x641;" horiz-adv-x="515" arabic-form="initial" 
d="M371 1049l-101 -107l-116 100l108 111zM511 376q0 -180 -34 -238q-44 -76 -207 -109q-137 -28 -189 -28h-107v139h42q310 -3 392 68q22 19 22 120l-2 12q-69 -37 -190 -37q-81 0 -112.5 36t-31.5 119q0 89 45 193q55 124 130 124q118 0 187 -147q55 -118 55 -252z
M418 482q0 52 -57.5 98.5t-110.5 46.5q-34 0 -53 -51q-15 -40 -15 -81q0 -57 104 -57q103 0 132 44z" />
    <glyph glyph-name="fehmedial" unicode="&#x641;" horiz-adv-x="587" arabic-form="medial" 
d="M427 954l-101 -108l-117 101l109 111zM614 1h-60q-141 0 -236 84q-108 -87 -315 -84h-29v139h40q124 -2 174 17q-78 107 -78 183q0 88 85 193q89 108 174 108q47 0 100 -106q49 -96 49 -152q0 -139 -100 -215q70 -28 196 -28v-139zM429 352q0 30 -31 79q-34 51 -61 51
q-43 0 -90 -54q-38 -44 -56 -94q16 -43 50 -83q42 -50 79 -50q29 0 70 61q39 58 39 90z" />
    <glyph glyph-name="qafisolated" unicode="&#x642;" horiz-adv-x="1120" arabic-form="isolated" 
d="M1074 748l-98 -102l-106 96l103 103zM853 739l-99 -101l-106 96l103 102zM1114 69q0 -249 -38 -307q-73 -111 -269 -199q-185 -83 -328 -83t-238 64q-111 74 -111 210q0 90 40 209.5t94 191.5q33 0 55 -35q-78 -174 -78 -270q0 -211 258 -211q123 0 290 69
q184 75 236 168q10 18 10 136l-4 21q-55 -39 -159 -39q-108 0 -155 40q-22 44 -22 141q0 76 51 178q58 116 125 116q117 0 187 -148q56 -120 56 -252zM1012 178q0 50 -53.5 96t-104.5 46q-36 0 -55 -51q-14 -37 -14 -80q0 -56 119 -56q81 0 108 45z" />
    <glyph glyph-name="qaffinal" unicode="&#x642;" horiz-adv-x="1222" arabic-form="final" 
d="M1071 744l-99 -102l-106 95l103 104zM848 734l-99 -101l-105 96l103 103zM1248 1h-124q0 -129 -41 -239q-35 -95 -268 -193q-212 -89 -336 -89q-143 0 -238 64q-111 74 -111 210q0 90 40 209.5t94 191.5q34 -8 54 -31q-77 -189 -77 -274q0 -211 258 -211q140 0 291 66
q155 67 244 171q11 53 12 126q-137 0 -171 3q-107 10 -157 51q-12 38 -12 121q0 88 45 181q53 111 130 111q103 0 171 -118q52 -88 71 -211h125v-139zM1030 142q0 68 -54 125.5t-121 57.5q-30 0 -50 -55q-16 -43 -16 -81q35 -47 184 -47h57z" />
    <glyph glyph-name="qafinitial" unicode="&#x642;" horiz-adv-x="515" arabic-form="initial" 
d="M494 1051l-99 -101l-105 95l103 103zM272 1043l-99 -102l-105 95l102 103zM511 376q0 -180 -34 -238q-44 -76 -207 -109q-137 -28 -189 -28h-107v139h42q310 -3 392 68q22 19 22 120l-2 12q-69 -37 -190 -37q-81 0 -112.5 36t-31.5 119q0 89 45 193q55 124 130 124
q118 0 187 -147q55 -118 55 -252zM418 482q0 52 -57.5 98.5t-110.5 46.5q-34 0 -53 -51q-15 -40 -15 -81q0 -57 104 -57q103 0 132 44z" />
    <glyph glyph-name="qafmedial" unicode="&#x642;" horiz-adv-x="587" arabic-form="medial" 
d="M537 947l-99 -101l-106 95l104 103zM316 938l-99 -101l-106 96l103 102zM614 1h-60q-141 0 -236 84q-108 -87 -315 -84h-29v139h40q124 -2 174 17q-78 107 -78 183q0 88 85 193q89 108 174 108q47 0 100 -106q49 -96 49 -152q0 -139 -100 -215q70 -28 196 -28v-139z
M429 352q0 30 -31 79q-34 51 -61 51q-43 0 -90 -54q-38 -44 -56 -94q16 -43 50 -83q42 -50 79 -50q29 0 70 61q39 58 39 90z" />
    <glyph glyph-name="kafisolated" unicode="&#x643;" horiz-adv-x="1521" arabic-form="isolated" 
d="M1494 895l-279 -85q-161 -51 -272 -105q172 -92 228 -137q122 -100 122 -222q0 -219 -190 -297q-120 -49 -379 -49h-163q-430 0 -430 257q0 67 31 150.5t75 133.5l44 -28q-57 -92 -57 -177q0 -132 186 -174q91 -21 291 -21q452 0 527 143q-31 110 -143 196q-4 3 -210 133
q0 113 21 183q350 186 679 248l6 -6q-27 -72 -87 -143zM724 484q-4 -26 -24 -71q-117 -5 -250 -94v36l3 20q31 19 82 45q-67 31 -67 78q0 32 53 81.5t86 49.5q54 0 96 -47l-50 -48q-24 28 -55 28q-52 0 -72 -45q26 -53 81 -63z" />
    <glyph glyph-name="arabickaffinal" unicode="&#x643;" horiz-adv-x="1712" arabic-form="final" 
d="M1575 1044l6 -6q-26 -68 -87 -143q-182 -58 -540 -190q145 -87 263 -165q49 -33 158 -145q121 -125 180 -172q104 -83 182 -83v-139h-37q-87 0 -221 132l-186 205q1 -101 -16 -179q-19 -86 -238 -129q-150 -30 -299 -30h-179q-430 0 -430 257q0 66 32 151.5t75 132.5
l43 -28q-57 -92 -57 -177q0 -195 427 -195q590 0 590 145q0 71 -69 136q-44 41 -147.5 102.5t-133.5 89.5q0 115 19 184q435 203 665 246zM724 484q-4 -26 -24 -71q-117 -5 -250 -94v36l3 20q31 19 82 45q-67 31 -67 78q0 32 53 81.5t86 49.5q54 0 96 -47l-50 -48
q-24 28 -55 28q-52 0 -72 -45q26 -53 81 -63z" />
    <glyph glyph-name="kafinitial" unicode="&#x643;" horiz-adv-x="694" arabic-form="initial" 
d="M662 895l-551 -190q172 -92 228 -137q122 -100 122 -222q0 -214 -147 -291q-104 -54 -340 -54v139h25q117 -2 232 25q165 40 165 119q0 77 -70 141q-40 36 -148 97q-101 58 -134 93q1 73 2 92q4 52 18 89q391 196 680 248l4 -8q-37 -82 -86 -141z" />
    <glyph glyph-name="kafmedial" unicode="&#x643;" horiz-adv-x="891" arabic-form="medial" 
d="M744 1044l4 -8q-37 -82 -86 -141q-267 -90 -529 -188q159 -88 330 -236l299 -274q63 -57 155 -57v-139h-37q-86 0 -221 132l-187 205q-2 -80 -14 -179q-90 -158 -484 -158v139h18q121 -1 248 28q180 40 180 118q0 77 -73 139q-34 30 -151 96q-96 55 -126 96q4 91 4 92
q4 52 17 89q422 205 653 246z" />
    <glyph glyph-name="lamisolated" unicode="&#x644;" horiz-adv-x="1053" arabic-form="isolated" 
d="M1048 965l-62 14q22 -570 22 -834q0 -326 -96 -460q-116 -161 -430 -161q-145 0 -238 57q-113 69 -113 205q0 71 25 158q27 92 66 144l48 -24q-45 -138 -45 -206q0 -88 85 -141q74 -46 167 -46q95 0 254 45q191 54 191 117q0 813 -74 1259q33 48 99 121q38 -83 101 -248z
" />
    <glyph glyph-name="lamfinal" unicode="&#x644;" horiz-adv-x="1148" arabic-form="final" 
d="M1174 1h-40q-61 0 -116 81q-16 -315 -131 -434q-122 -127 -434 -127q-131 0 -221 66q-101 73 -101 199q0 71 25 158q27 91 66 144q36 -8 48 -24q-45 -138 -45 -206q0 -94 93 -145q75 -41 178 -41q119 0 236 37q142 45 196 124l-45 1227q13 23 95 155l3 2q5 -12 6 -209
q1 -99 12 -305q11 -200 11 -304q0 -117 25 -174q38 -85 139 -85v-139z" />
    <glyph glyph-name="laminitial" unicode="&#x644;" horiz-adv-x="293" arabic-form="initial" 
d="M293 965q-25 3 -62 14q2 -93 15 -367q11 -230 11 -366q0 -89 -75.5 -167t-163.5 -78h-44v139q141 0 189 61q0 55 2 165q2 117 2 173q0 359 -74 553q34 47 98 121z" />
    <glyph glyph-name="lammedial" unicode="&#x644;" horiz-adv-x="397" arabic-form="medial" 
d="M424 1h-47q-101 0 -149 120q-77 -120 -254 -120v139q211 0 211 76q0 139 -27.5 418.5t-27.5 420.5l103 155q32 -133 32 -407q0 -79 -3 -220.5t-3 -194.5q0 -248 165 -248v-139z" />
    <glyph glyph-name="meemisolated" unicode="&#x645;" horiz-adv-x="759" arabic-form="isolated" 
d="M758 320q0 -78 -56 -175l-267 -29q-208 -32 -208 -82q0 -72 12.5 -216.5t12.5 -216.5q0 -24 -35 -65q-30 -35 -56 -51q-1 46 2 127q4 92 4 128q0 168 -36 258q12 48 39 143q32 27 142 82q-34 92 -34 160q0 61 43 114q46 57 105 57q94 0 207 -70q125 -77 125 -164z
M658 265q-80 149 -256 149q-34 0 -34 -40q0 -96 18 -129z" />
    <glyph glyph-name="meemfinal" unicode="&#x645;" horiz-adv-x="950" arabic-form="final" 
d="M976 1h-44q-45 0 -107 27q-9 -88 -52 -164q-53 -96 -128 -96q-102 0 -164 141q-50 115 -48 232q-144 0 -208 -58l32 -479q1 -22 -35 -63q-30 -35 -56 -52q-4 146 -13 439q-1 22 -11.5 66.5t-10.5 68.5q0 101 104 166q90 57 198 57l12 111q342 -257 531 -257v-139zM752 59
q-158 75 -237 128q6 -260 145 -260q51 0 92 132z" />
    <glyph glyph-name="meeminitial" unicode="&#x645;" horiz-adv-x="617" arabic-form="initial" 
d="M616 227q0 -30 -42 -102q-39 -66 -62 -78.5t-101 -12.5q-112 0 -206 90q-80 -86 -97 -97q-42 -26 -134 -26v139q119 0 194 91l104 170q60 91 145 91q90 0 148 -90q51 -79 51 -175zM517 165l2 34q4 64 -32 111q-39 51 -103 51q-39 0 -119 -125q81 -81 201 -81q31 0 51 10z
" />
    <glyph glyph-name="meemmedial" unicode="&#x645;" horiz-adv-x="784" arabic-form="medial" 
d="M810 1h-54q-73 0 -173 100q-39 -83 -97 -155q-85 0 -182 53q-89 49 -149 120q-47 -72 -71 -90q-36 -28 -110 -28v139q82 0 157 76l123 141q75 76 157 76q57 0 118 -76l112 -141q76 -76 169 -76v-139zM501 85q0 82 -29 140q-37 75 -110 75q-64 0 -126 -84q71 -61 123 -86
q38 -17 142 -45z" />
    <glyph glyph-name="noonisolated" unicode="&#x646;" horiz-adv-x="1078" arabic-form="isolated" 
d="M765 546l-101 -107l-117 100l109 112zM464 -508q-145 0 -234 66q-99 74 -99 214q0 84 46 204.5t102 182.5l49 -36q-86 -158 -86 -285q0 -101 88 -153q72 -42 181 -42q142 0 291 51q194 67 194 178q0 127 -84 318q32 82 78 174q46 -48 69 -216q17 -120 17 -235
q0 -218 -207 -331q-167 -90 -405 -90z" />
    <glyph glyph-name="noonfinal" unicode="&#x646;" horiz-adv-x="1151" arabic-form="final" 
d="M752 559l-101 -107l-117 100l109 112zM1177 1h-35q-45 0 -77 25q1 -22 5 -86q3 -54 3 -86q0 -173 -227 -277q-184 -84 -382 -84q-146 0 -234 65q-99 73 -99 214q0 82 46 207.5t99 189.5l42 -21l5 -11q-81 -170 -81 -288q0 -99 81 -157q73 -52 175 -52q139 0 296 57
q199 73 199 183q0 149 -122 351q25 82 64 174q38 -30 67 -105q34 -86 53 -110q41 -50 122 -50v-139z" />
    <glyph glyph-name="nooninitial" unicode="&#x646;" horiz-adv-x="338" arabic-form="initial" 
d="M319 829l-101 -108l-117 100l108 112zM336 264q0 -99 -88 -181t-188 -82h-94v139q280 0 280 101l-76 130q18 61 64 167l6 -3q96 -148 96 -271z" />
    <glyph glyph-name="noonmedial" unicode="&#x646;" horiz-adv-x="473" arabic-form="medial" 
d="M336 729l-101 -108l-116 100l108 112zM498 1h-76q-109 0 -181 106q-74 -106 -208 -106h-59v139q124 0 176 39q60 46 60 166q20 8 35 8l30 -8q0 -137 50 -175q39 -30 173 -30v-139z" />
    <glyph glyph-name="hehisolated" unicode="&#x647;" horiz-adv-x="599" arabic-form="isolated" 
d="M598 244q0 -118 -88 -184q-79 -59 -198 -59q-78 0 -128 43q-53 45 -53 121q0 73 62 222l100 220q127 -55 207 -140q98 -103 98 -223zM511 196q0 80 -68 145q-36 35 -136 97q-80 -158 -80 -218q0 -36 40 -62q35 -24 73 -24t98 17q73 20 73 45z" />
    <glyph glyph-name="hehfinal" unicode="&#x647;" horiz-adv-x="773" arabic-form="final" 
d="M799 1h-33q-88 0 -138 65q-30 37 -69 143q-30 -35 -94 -100q-88 0 -189 19q-145 28 -145 79q0 24 61 181q80 69 291 151l-23 133q18 60 67 136l72 -371q72 -297 161 -297h39v-139zM548 244q-11 59 -45 203q-94 -35 -141 -58q-96 -47 -113 -88q15 -45 299 -57z" />
    <glyph glyph-name="hehinitial" unicode="&#x647;" horiz-adv-x="800" arabic-form="initial" 
d="M798 227q0 -34 -38 -113q-40 -82 -66 -96q-62 4 -190 27q-140 26 -177 43q-218 -87 -353 -87v139q103 1 114 2q65 5 109 27q-52 33 -52 151t132 224q-38 22 -66 33l42 159l207 -134q149 -100 230 -181q108 -108 108 -194zM713 189q0 79 -174 206q6 -38 6 -66
q0 -78 -79 -147q170 -40 218 -40q29 0 29 47zM465 359q0 36 -21 74q-25 44 -58 44q-60 0 -107 -45.5t-47 -105.5q0 -31 42.5 -68.5t74.5 -37.5q43 0 81 49q35 45 35 90z" />
    <glyph glyph-name="hehmedial" unicode="&#x647;" horiz-adv-x="788" arabic-form="medial" 
d="M815 1q-77 0 -158 -26q-106 -35 -106 -94q0 -69 56 -141q51 -64 119 -98q-9 -57 -46 -151q-374 170 -490 527q-72 -20 -166 -18l-49 1v139h33q114 -1 159 13q0 387 107 507q123 -34 183 -209q44 -130 44 -292q-47 -73 -220 -121q41 -149 220 -275q-17 51 -17 102
q0 132 90 207q86 71 219 68h22v-139zM430 237q0 63 -43 140.5t-97 106.5q-50 -91 -50 -302v-19q45 3 109 23q81 25 81 51z" />
    <glyph glyph-name="wawisolated" unicode="&#x648;" horiz-adv-x="634" arabic-form="isolated" 
d="M633 63q0 -130 -111 -340q-122 -231 -233 -231q-42 0 -102 23t-94 51q237 135 284 173q147 116 172 273q-65 -10 -169 -10t-136 45q-25 35 -25 143q0 79 61 181q67 112 140 112q114 0 171 -161q42 -117 42 -259zM539 165q0 57 -43 113q-46 60 -101 60q-36 0 -59 -55
q-19 -44 -19 -86q0 -58 95 -58q82 0 127 26z" />
    <glyph glyph-name="wawfinal" unicode="&#x648;" horiz-adv-x="694" arabic-form="final" 
d="M720 1h-93q-13 -118 -121 -303q-120 -206 -217 -206q-42 0 -102.5 23t-93.5 51q235 135 279 169q139 110 175 267l-68 -1q-196 -1 -255 56q-8 24 -8 48q0 119 46 232q58 146 158 146q97 0 163 -127q56 -108 56 -216h81v-139zM551 144q0 62 -46 128q-50 72 -109 72
q-37 0 -61 -62q-20 -50 -20 -95q0 -46 203 -46z" />
    <glyph glyph-name="alefmaksuraisolated" unicode="&#x649;" horiz-adv-x="1296" arabic-form="isolated" 
d="M1294 603q-13 -53 -52 -152q-11 0 -33 2.5t-33 2.5q-97 0 -190 -81q-79 -70 -126 -170q22 -40 186 -97q146 -51 146 -120q0 -91 -54 -203q-346 -180 -707 -180q-117 0 -207 82q-93 85 -93 201q0 90 52 211q48 112 113 189q36 -9 55 -32q-110 -192 -110 -288
q0 -217 330 -217q104 0 282 53q192 58 253 119q-11 8 -193 82q-145 60 -145 109q0 154 138 331q145 185 294 185q80 0 94 -27z" />
    <glyph glyph-name="alefmaksurafinal" unicode="&#x649;" horiz-adv-x="1165" arabic-form="final" 
d="M1191 1q-166 0 -181 -1q-109 -11 -164 -65l143 -51q111 -42 111 -66q0 -158 -47 -204t-272 -89q-198 -38 -303 -38q-134 0 -230 58q-114 69 -114 195q0 107 37 219q40 123 106 193q40 -12 55 -31q-97 -167 -97 -274q0 -217 323 -217q259 0 463 84l8 12l-5 11l-135 49
q-78 31 -127 66q0 136 73.5 212t208.5 76h147v-139z" />
    <glyph glyph-name="yehisolated" unicode="&#x64a;" horiz-adv-x="1296" arabic-form="isolated" 
d="M1294 603q-13 -53 -52 -152q-11 0 -33 2.5t-33 2.5q-97 0 -190 -81q-79 -70 -126 -170q22 -40 186 -97q146 -51 146 -120q0 -91 -54 -203q-346 -180 -707 -180q-117 0 -207 82q-93 85 -93 201q0 90 52 211q48 112 113 189q36 -9 55 -32q-110 -192 -110 -288
q0 -217 330 -217q104 0 282 53q192 58 253 119q-11 8 -193 82q-145 60 -145 109q0 154 138 331q145 185 294 185q80 0 94 -27zM748 -664l-97 -90l-95 96l97 89zM533 -662l-97 -90l-95 95l97 90z" />
    <glyph glyph-name="yehfinal" unicode="&#x64a;" horiz-adv-x="1165" arabic-form="final" 
d="M1191 1q-166 0 -181 -1q-109 -11 -164 -65l143 -51q111 -42 111 -66q0 -158 -47 -204t-272 -89q-198 -38 -303 -38q-134 0 -230 58q-114 69 -114 195q0 107 37 219q40 123 106 193q40 -12 55 -31q-97 -167 -97 -274q0 -217 323 -217q259 0 463 84l8 12l-5 11l-135 49
q-78 31 -127 66q0 136 73.5 212t208.5 76h147v-139zM748 -694l-97 -90l-95 96l97 89zM533 -692l-97 -90l-95 95l97 90z" />
    <glyph glyph-name="yehinitial" unicode="&#x64a;" horiz-adv-x="433" arabic-form="initial" 
d="M336 264q0 -99 -88 -181t-188 -82h-94v139q280 0 280 101l-76 130q18 61 64 167l6 -3q96 -148 96 -271zM442 -253l-98 -102l-107 96l104 103zM220 -262l-99 -101l-105 95l103 103z" />
    <glyph glyph-name="yehmedial" unicode="&#x64a;" horiz-adv-x="473" arabic-form="medial" 
d="M498 1h-76q-109 0 -181 106q-74 -106 -208 -106h-59v139q124 0 176 39q60 46 60 166q20 8 35 8l30 -8q0 -137 50 -175q39 -30 173 -30v-139zM442 -253l-98 -102l-107 96l104 103zM220 -262l-99 -101l-105 95l103 103z" />
    <glyph glyph-name=".notdef" horiz-adv-x="1024" 
d="M128 0v2263h768v-2263h-768zM256 128h512v2007h-512v-2007z" />
    <glyph glyph-name=".null" horiz-adv-x="0" 
 />
    <glyph glyph-name="nonmarkingreturn" horiz-adv-x="2048" 
 />
    <glyph glyph-name="uni000D" unicode="&#xd;" horiz-adv-x="500" 
 />
    <glyph glyph-name="space" unicode=" " horiz-adv-x="500" 
 />
    <glyph glyph-name="exclam" unicode="!" horiz-adv-x="650" 
d="M400 478l-105 -106v480q0 63 -115 267q77 0 220 176v-817zM438 219q0 -36 -26.5 -63t-62.5 -27q-37 0 -64 26.5t-27 63.5q0 36 27 63t63 27q37 0 63.5 -26.5t26.5 -63.5z" />
    <glyph glyph-name="quotedbl" unicode="&#x22;" horiz-adv-x="552" 
d="M483 1211q0 -65 -21 -201.5t-21 -210.5h-77q0 72 -19.5 208.5t-19.5 203.5q0 74 79 74q31 0 55 -21.5t24 -52.5zM226 1211q0 -66 -20 -202.5t-20 -209.5h-77q0 72 -19.5 208.5t-19.5 203.5q0 74 76 74q32 0 56 -21t24 -53z" />
    <glyph glyph-name="numbersign" unicode="#" horiz-adv-x="1365" 
d="M1273 477h-327l-87 -409h-104l87 409h-443l-85 -409h-104l85 409h-204v104h226l82 389h-308v104h329l88 411h104l-88 -411h440l86 411h104l-86 -411h205v-104h-225l-81 -389h306v-104zM944 970h-441l-82 -387h442z" />
    <glyph glyph-name="dollar" unicode="$" horiz-adv-x="939" 
d="M881 505q0 -131 -107 -241q-89 -93 -227 -149v-168h-72v156l-63 -2q-125 -4 -296 68v352h67q42 -335 292 -352v540q-169 110 -215 152q-116 106 -116 224q0 120 108 221q97 91 223 121v164h72v-155h39q88 0 230 -49v-312h-69q-30 249 -200 291v-481q47 -36 109 -78
q116 -78 156 -123q69 -77 69 -179zM475 934v435q-78 -7 -128 -55q-53 -51 -53 -128q0 -135 181 -252zM724 398q0 149 -177 258v-479q177 44 177 221z" />
    <glyph glyph-name="percent" unicode="%" horiz-adv-x="1472" 
d="M1389 494q0 -151 -90 -264q-96 -121 -243 -121q-123 0 -199 89q-73 84 -73 209q0 153 89 268q96 124 245 124q126 0 201 -91q70 -86 70 -214zM1222 1464l-887 -1396h-85l887 1396h85zM689 1118q0 -150 -93 -263q-98 -119 -245 -119q-123 0 -198 90q-69 84 -69 210
q0 147 91 263q98 125 242 125q127 0 202 -91q70 -86 70 -215zM1273 394q0 115 -50 215q-62 124 -166 124q-79 0 -119 -68q-34 -57 -34 -141q0 -115 48 -218q60 -128 162 -128q159 0 159 216zM570 1026q0 112 -50 211q-61 121 -163 121q-155 0 -155 -215q0 -119 49 -218
q62 -125 168 -125q151 0 151 226z" />
    <glyph glyph-name="ampersand" unicode="&#x26;" horiz-adv-x="1301" 
d="M1318 411q-164 -311 -267 -311q-118 0 -342 278q-103 -130 -160 -181q-108 -97 -213 -97q-110 0 -189 88q-75 84 -75 196q0 201 334 456q-109 206 -109 322q0 134 143 211q118 64 265 64q90 0 152 -39q74 -46 74 -131q0 -81 -81 -156q-37 -34 -149 -105q-72 -45 -124 -83
l213 -336q93 144 120 336h358v-51q-248 0 -444 -329q202 -271 293 -271q62 0 159 159zM765 1263q0 56 -38.5 88t-95.5 32q-74 0 -118 -48t-44 -122q0 -84 87 -249q104 95 134 132q75 90 75 167zM681 414q-166 224 -255 386q-164 -170 -164 -331q0 -87 44 -149
q49 -70 133 -70q110 0 242 164z" />
    <glyph glyph-name="quotesingle" unicode="'" horiz-adv-x="320" 
d="M267 1342q0 -43 -12 -114l-54 -321h-39l-49 325q-12 80 -12 110q0 95 85 95q81 0 81 -95z" />
    <glyph glyph-name="parenleft" unicode="(" horiz-adv-x="653" 
d="M563 -531l-31 -45q-172 218 -238 349q-151 299 -151 665q0 349 152 652q73 147 235 350l33 -41q-231 -533 -231 -954q0 -339 77 -596q30 -99 154 -380z" />
    <glyph glyph-name="parenright" unicode=")" horiz-adv-x="653" 
d="M520 425q0 -349 -152 -652q-70 -139 -233 -349l-34 41q228 546 228 954q0 341 -75 597q-34 116 -152 378l29 46q173 -221 238 -351q151 -300 151 -664z" />
    <glyph glyph-name="asterisk" unicode="*" horiz-adv-x="680" 
d="M640 931l-237 52q-3 -10 -9 -19l211 -123l-102 -102l-131 205q-12 -6 -20 -7l63 -237h-144l52 238q-7 2 -15 6l-131 -205l-102 102l211 123q-6 12 -8 19l-238 -52v144l237 -63q2 11 6 21l-204 130l102 102l122 -210q11 5 20 8l-52 237h144l-63 -236q13 -3 25 -9l122 210
l102 -102l-204 -130q6 -12 7 -21l236 63v-144zM375 1000q0 35 -35 35t-35 -35t35 -35t35 35z" />
    <glyph glyph-name="plus" unicode="+" horiz-adv-x="946" 
d="M835 452h-321v-323h-84v323h-325v83h325v328h84v-328h321v-83z" />
    <glyph glyph-name="comma" unicode="," horiz-adv-x="415" 
d="M301 204q0 -155 -175 -266q0 112 -28 127q12 4 37 19q36 29 36 58q-52 18 -52 79q0 37 25 62.5t62 25.5q95 0 95 -105z" />
    <glyph glyph-name="hyphenminus" unicode="-" horiz-adv-x="946" 
d="M835 452h-730v83h730v-83z" />
    <glyph glyph-name="period" unicode="." horiz-adv-x="415" 
d="M297 219q0 -36 -26.5 -63t-62.5 -27q-37 0 -64 26.5t-27 63.5q0 36 27 63t63 27q37 0 63.5 -26.5t26.5 -63.5z" />
    <glyph glyph-name="slash" unicode="/" horiz-adv-x="569" 
d="M511 1425l-379 -1564h-83l376 1564h86z" />
    <glyph glyph-name="zero" unicode="0" horiz-adv-x="1131" 
d="M1054 875q0 -263 -142 -500q-165 -275 -413 -275q-119 0 -221 78q-95 72 -145 186q-55 125 -55 298q0 258 136 499q160 283 401 283q212 0 334 -186q105 -160 105 -383zM908 720q0 376 -199 536q-97 78 -183 78q-170 0 -251 -186q-59 -136 -59 -332q0 -202 92 -381
q112 -218 297 -218q166 0 245 180q58 133 58 323z" />
    <glyph glyph-name="one" unicode="1" horiz-adv-x="1131" 
d="M876 129h-528v48h49q133 0 133 127v890q0 87 -76 87q-35 0 -166 -46v49l487 170v-40q-83 -23 -83 -116v-977q0 -144 135 -144h49v-48z" />
    <glyph glyph-name="two" unicode="2" horiz-adv-x="1131" 
d="M1034 436l-72 -354h-47v12q0 35 -36 35h-781v48l292 352q299 360 362 517q37 92 37 154q0 79 -50 132.5t-129 53.5q-136 0 -230 -138q-80 -117 -92 -264h-69v304q240 149 450 149q129 0 215 -60q99 -68 99 -191q0 -128 -108 -267q-45 -58 -204 -215l-425 -420h564
q150 0 176 152h48z" />
    <glyph glyph-name="three" unicode="3" horiz-adv-x="1131" 
d="M1020 598q0 -200 -183 -353q-173 -145 -377 -145q-131 0 -297 64v333h69q15 -139 99 -229q89 -97 225 -97q130 0 207 92q73 86 73 218q0 155 -84.5 238.5t-239.5 83.5h-165v47q144 15 268 123q133 116 133 255q0 70 -45 113t-116 43q-134 0 -218 -138q-70 -115 -75 -260
h-68v302q236 149 432 149q110 0 185 -49q88 -57 88 -161q0 -209 -419 -377q70 3 103 3q405 0 405 -255z" />
    <glyph glyph-name="four" unicode="4" horiz-adv-x="1131" 
d="M1007 494h-204v-190q0 -127 126 -127h29v-48h-502v48h42q141 0 141 127v190h-576v46l393 496q190 240 297 411h50v-852h204v-101zM639 595v529q-138 -131 -250 -273l-202 -256h452z" />
    <glyph glyph-name="five" unicode="5" horiz-adv-x="1131" 
d="M1025 637q0 -212 -167.5 -374.5t-380.5 -162.5q-143 0 -279 66v331h70q19 -134 89 -221q81 -101 208 -101q137 0 209 109q62 93 62 237q0 150 -69 257q-80 123 -223 123q-158 0 -257 -159h-59l31 666h595q60 0 61 51h47v-352h-47q0 151 -145 151h-454l-19 -399
q130 104 333 104q163 0 272 -80q123 -89 123 -246z" />
    <glyph glyph-name="six" unicode="6" horiz-adv-x="1131" 
d="M1044 517q0 -177 -148 -300q-140 -117 -320 -117q-221 0 -344 181q-107 157 -107 389q0 286 152 512q172 255 445 255q113 0 235 -49v-344h-74q-2 130 -49 221q-61 118 -177 118q-114 0 -205 -117q-71 -92 -107 -221q-43 -155 -43 -282q0 -43 9 -127q167 195 376 195
q156 0 252 -78q105 -84 105 -236zM853 458q0 119 -57 201q-65 94 -179 94q-120 0 -188 -91q-62 -82 -62 -206q0 -120 60 -205q67 -97 182 -97q117 0 184 97q60 85 60 207z" />
    <glyph glyph-name="seven" unicode="7" horiz-adv-x="1131" 
d="M1048 1346q-233 -298 -340 -569q-115 -292 -125 -648h-181q11 227 57 383q77 262 332 581l131 164h-530q-86 0 -119.5 -33t-35.5 -120h-47v350h47v-7q0 -39 55 -39h756v-62z" />
    <glyph glyph-name="eight" unicode="8" horiz-adv-x="1131" 
d="M1067 490q0 -193 -269 -327q-126 -63 -290 -63q-159 0 -274 64q-141 79 -141 227q0 112 107 212q60 56 203 141l73 44q-17 10 -58 31q-120 62 -166 107q-72 70 -72 175q0 150 166 250q143 86 303 86q120 0 211 -47q114 -59 114 -168q0 -95 -115 -204q-52 -49 -193 -149
q26 -15 97 -52q144 -75 202 -125q102 -88 102 -202zM810 1189q0 95 -73 146q-65 46 -163 46t-167 -51q-77 -56 -77 -151q0 -98 104 -178q55 -43 188 -107q188 164 188 295zM894 431q0 137 -162 219q-87 44 -208 114q-118 -78 -170 -137q-79 -90 -79 -197q0 -125 93 -200
q87 -70 214 -70q125 0 215 72q97 77 97 199z" />
    <glyph glyph-name="nine" unicode="9" horiz-adv-x="1131" 
d="M1029 864q0 -194 -72 -365q-77 -184 -221 -295q-134 -104 -297 -104q-124 0 -237 51v341h72q2 -124 49 -218q60 -119 171 -119q186 0 283 239q73 179 73 396q0 34 -5 108q-184 -190 -386 -190q-149 0 -245 84q-101 88 -101 235q0 170 149 293q141 117 314 117
q224 0 347 -181q106 -156 106 -392zM787 1084q0 115 -59 203q-67 101 -177 101q-123 0 -191 -97q-60 -85 -60 -213q0 -122 62 -204q68 -91 186 -91q114 0 180 97q59 85 59 204z" />
    <glyph glyph-name="colon" unicode=":" horiz-adv-x="415" 
d="M297 490q0 -36 -26.5 -63t-62.5 -27q-37 0 -64 26.5t-27 63.5q0 36 27 63t63 27q37 0 63.5 -26.5t26.5 -63.5zM297 219q0 -36 -26.5 -63t-62.5 -27q-37 0 -64 26.5t-27 63.5q0 36 27 63t63 27q37 0 63.5 -26.5t26.5 -63.5z" />
    <glyph glyph-name="semicolon" unicode=";" horiz-adv-x="491" 
d="M369 949q0 -50 -35.5 -85.5t-85.5 -35.5t-85.5 35.5t-35.5 85.5q0 49 35 85t84 36q51 0 87 -35t36 -86zM458 163q0 -265 -334 -481v58q222 160 222 340q0 44 -31 97q-32 -48 -92 -48q-98 0 -98 98q0 57 49 92q43 31 103 31q84 0 132.5 -51t48.5 -136z" />
    <glyph glyph-name="less" unicode="&#x3c;" horiz-adv-x="1365" 
d="M1222 270l-1080 456v97l1080 455v-118l-936 -385l936 -387v-118z" />
    <glyph glyph-name="equal" unicode="=" horiz-adv-x="946" 
d="M836 539h-731v86h731v-86zM836 362h-731v86h731v-86z" />
    <glyph glyph-name="greater" unicode="&#x3e;" horiz-adv-x="1365" 
d="M1222 724l-1080 -454v117l937 386l-937 387v118l1080 -457v-97z" />
    <glyph glyph-name="question" unicode="?" horiz-adv-x="917" 
d="M887 1213q0 -110 -94 -223l-187 -191q-112 -117 -140 -218q-17 -61 -19 -144h-99q2 155 41 257q34 89 134 224q143 193 143 291q0 79 -50 124t-130 45q-143 0 -236 -130q-81 -114 -89 -265h-66v302q277 152 498 152q123 0 201 -49q93 -58 93 -175zM516 221
q0 -50 -35 -85.5t-85 -35.5t-85 35.5t-35 85.5q0 49 34.5 85t83.5 36q51 0 86.5 -35t35.5 -86z" />
    <glyph glyph-name="at" unicode="@" horiz-adv-x="1877" 
d="M1837 293q-95 -277 -332 -443.5t-531 -166.5q-247 0 -448 113q-210 118 -318 332q-106 211 -106 454q0 409 269.5 688t677.5 279q315 0 509 -183q197 -188 197 -501q0 -397 -280 -628q-110 -91 -259 -91q-157 0 -157 140q0 40 25 155q-109 -132 -165 -182
q-115 -102 -217 -102q-95 0 -147 70q-47 62 -47 160q0 162 97 331q88 152 225 266q124 103 235 103q129 0 169 -141l31 115l131 19l-139 -469q-74 -250 -74 -316q0 -82 93 -82q184 0 315 241q112 206 112 406q0 291 -183 466q-181 172 -473 172q-249 0 -447.5 -131
t-305.5 -359q-111 -237 -111 -481q0 -215 103 -401q107 -195 290.5 -292.5t399.5 -97.5q271 0 493 152t314 405h54zM1197 886q0 155 -137 155q-152 0 -290 -247q-122 -219 -122 -388q0 -142 126 -142q102 0 218 134q93 108 142 226q63 152 63 262z" />
    <glyph glyph-name="A" unicode="A" horiz-adv-x="1237" 
d="M1235 129h-359v48h23q17 0 17 33q0 10 -4 22l-120 348h-437q-69 -194 -69 -289q0 -114 118 -114h53v-48h-448v48q113 6 204 239l410 1045h59l354 -1022q38 -110 69 -162q58 -97 130 -100v-48zM770 641l-182 532l-210 -532h392z" />
    <glyph glyph-name="B" unicode="B" horiz-adv-x="1109" 
d="M1039 579q0 -190 -164 -324q-154 -126 -348 -126h-469v48q88 1 120 35.5t32 123.5v866q0 89 -31.5 122.5t-120.5 35.5v48h605q146 0 219 -39q98 -54 98 -187q0 -206 -283 -373q160 -2 234 -38q108 -53 108 -192zM801 1048q0 124 -61 212q-69 101 -187 101q-99 0 -158 -48
v-465h195q211 0 211 200zM847 457q0 158 -96 251.5t-254 93.5h-102v-527q103 -81 215 -81q113 0 177 77q60 71 60 186z" />
    <glyph glyph-name="C" unicode="C" horiz-adv-x="1259" 
d="M1206 373q-317 -273 -578 -273q-249 0 -405 183q-147 174 -147 427q0 396 338 620q161 107 388 107q198 0 374 -62v-302h-71q-13 146 -132 228q-107 73 -260 73q-221 0 -349 -168q-116 -153 -116 -381q0 -240 129 -403q140 -177 374 -177q221 0 455 189v-61z" />
    <glyph glyph-name="D" unicode="D" horiz-adv-x="1451" 
d="M1377 903q0 -345 -221.5 -559.5t-567.5 -214.5h-524v48q88 1 120 35.5t32 123.5v866q0 89 -31.5 122.5t-120.5 35.5v48h786q527 0 527 -505zM1189 773q0 590 -498 590q-175 0 -290 -77v-999q160 -93 312 -93q230 0 360 180q116 160 116 399z" />
    <glyph glyph-name="E" unicode="E" horiz-adv-x="981" 
d="M963 497l-82 -412h-50q-1 44 -38 44h-729v48q89 1 120.5 35t31.5 124v865q0 89 -31.5 123t-120.5 36v48h714q65 0 67 50h47v-382h-73q-4 284 -342 284h-76q-12 -109 -12 -195q0 -333 281 -333h98v-70l-367 -10v-575h106q336 0 385 320h71z" />
    <glyph glyph-name="F" unicode="F" horiz-adv-x="875" 
d="M890 1072h-72q0 288 -344 288h-76q-11 -109 -11 -196q0 -181 57 -261q68 -96 239 -96h83v-69l-368 -8v-394q0 -154 152 -159v-48h-489v48q88 1 120 35.5t32 123.5v866q0 89 -31.5 122.5t-120.5 35.5v48h757q23 0 28 44h44v-380z" />
    <glyph glyph-name="G" unicode="G" horiz-adv-x="1365" 
d="M1311 632q-49 -1 -77 -46q-24 -38 -24 -91v-412h-50q-5 176 -133 176q-58 0 -139 -56q-26 -18 -40 -26q-134 -77 -254 -77q-137 0 -263 86q-121 82 -184 209q-66 134 -66 302q0 202 96 374.5t268 271.5q164 94 370 94q160 0 363 -61v-303h-73q-17 144 -130 224
q-103 74 -253 74q-220 0 -350 -158q-121 -147 -121 -371q0 -235 119 -412q135 -201 360 -201q120 0 208 65q99 72 99 187q0 151 -189 151h-36v47h499v-47z" />
    <glyph glyph-name="H" unicode="H" horiz-adv-x="1408" 
d="M1345 129h-489v48q88 1 120 36t32 123v461h-610v-461q0 -155 152 -159v-48h-489v48q88 1 120 35.5t32 123.5v866q0 89 -31.5 122.5t-120.5 35.5v48h489v-48q-89 -2 -120.5 -35.5t-31.5 -122.5v-343h610v343q0 89 -31.5 122.5t-120.5 35.5v48h489v-48q-89 -2 -120.5 -35.5
t-31.5 -122.5v-866q0 -90 31.5 -124t120.5 -35v-48z" />
    <glyph glyph-name="I" unicode="I" horiz-adv-x="619" 
d="M562 129h-489v48q88 1 120 35.5t32 123.5v866q0 89 -31.5 122.5t-120.5 35.5v48h489v-48q-89 -2 -120.5 -35t-31.5 -123v-866q0 -154 152 -159v-48z" />
    <glyph glyph-name="J" unicode="J" horiz-adv-x="597" 
d="M556 1360q-89 -2 -120.5 -36t-31.5 -123v-839q0 -337 -235 -579q-103 -106 -214 -106q-46 0 -105 18v317h70q6 -80 37 -138q41 -77 111 -77q151 0 151 332v1072q0 90 -31.5 123.5t-120.5 35.5v48h489v-48z" />
    <glyph glyph-name="K" unicode="K" horiz-adv-x="1195" 
d="M1222 129h-323l-503 675v-468q0 -154 152 -159v-48h-489v48q88 1 120 35.5t32 123.5v865q0 90 -31.5 123.5t-120.5 35.5v48h489v-48q-89 -2 -120.5 -35.5t-31.5 -123.5v-404l247 242q164 161 164 254q0 64 -103 67v48h460v-48q-130 -16 -278 -159l-324 -313l351 -469
q181 -242 309 -242v-48z" />
    <glyph glyph-name="L" unicode="L" horiz-adv-x="960" 
d="M965 495l-86 -413h-47q-1 47 -43 47h-724v48q88 1 120 35.5t32 123.5v865q0 89 -31.5 123t-120.5 36v48h491v-48q-91 -2 -122 -35t-31 -124v-1024h130q303 0 360 318h72z" />
    <glyph glyph-name="M" unicode="M" horiz-adv-x="1813" 
d="M1800 129h-492v48q77 2 107 32t30 107q0 14 -2 34l-78 795q-171 -304 -244 -475l-251 -588h-45l-468 1164l-34 -359q-23 -243 -23 -385q0 -316 158 -325v-48h-452v48q85 20 138 146q24 57 58 206q43 185 63 402l25 266q1 11 1 41q0 71 -32 97q-27 23 -100 25v48h327
l429 -1058l246 581q138 327 183 477h357v-48q-80 -2 -114 -24q-42 -28 -42 -104q0 -13 1 -23l76 -798q12 -130 34 -168q36 -63 144 -66v-48z" />
    <glyph glyph-name="N" unicode="N" horiz-adv-x="1387" 
d="M1376 1360q-183 -17 -183 -601v-676h-47l-863 1166v-372q0 -257 18 -389q40 -295 167 -311v-48h-434v48q182 28 182 689v345q0 84 -33 115.5t-117 33.5v48h328l727 -977v297q0 613 -182 632v48h437v-48z" />
    <glyph glyph-name="O" unicode="O" horiz-adv-x="1493" 
d="M1418 829q0 -199 -111.5 -377.5t-289.5 -269.5q-161 -82 -337 -82q-258 0 -431 173t-173 431q0 294 214.5 513.5t507.5 219.5q335 0 523 -272q97 -140 97 -336zM1249 653q0 186 -76 347q-83 176 -233 262q-143 82 -267 82q-199 0 -317 -139q-111 -131 -111 -333
q0 -267 154 -466q168 -217 428 -217q189 0 309 140q113 132 113 324z" />
    <glyph glyph-name="P" unicode="P" horiz-adv-x="981" 
d="M1011 1179q0 -165 -148.5 -309.5t-314.5 -144.5q-68 0 -152 37v-426q0 -154 152 -159v-48h-489v48q89 1 120.5 35t31.5 124v866q0 89 -31.5 122.5t-120.5 35.5v48h633q319 0 319 -229zM813 1052q0 126 -54 209q-63 98 -182 98q-93 0 -181 -64v-399q128 -96 229 -96
q188 0 188 252z" />
    <glyph glyph-name="Q" unicode="Q" horiz-adv-x="1493" 
d="M1482 -67q-92 -104 -128 -137q-90 -81 -162 -81q-85 0 -293 172q-231 192 -314 229q-29 13 -57 13q-78 0 -208 -132v62q47 66 100 111q-162 67 -252 217q-87 144 -87 324q0 392 364 624q160 102 362 102q344 0 525 -281q87 -135 87 -323q0 -259 -167.5 -460t-421.5 -252
q65 -16 226 -144q148 -118 213 -118q71 0 213 138v-64zM1255 662q0 181 -80 342q-84 171 -232 261q-139 85 -267 85q-195 0 -315 -142q-114 -135 -114 -333q0 -376 288 -584q133 -96 294 -96q190 0 311 141q115 133 115 326z" />
    <glyph glyph-name="R" unicode="R" horiz-adv-x="1109" 
d="M1157 129h-240q-73 0 -128 86l-396 616v-495q0 -154 154 -159v-48h-491v48q88 1 120 35.5t32 123.5v866q0 89 -31.5 122.5t-120.5 35.5v48h636q283 0 283 -220q0 -245 -318 -427l223 -345q150 -232 277 -239v-48zM770 1046q0 119 -51 208q-61 107 -172 107
q-82 0 -154 -50v-417q117 -85 201 -85q176 0 176 237z" />
    <glyph glyph-name="S" unicode="S" horiz-adv-x="917" 
d="M862 502q0 -168 -155 -289q-144 -113 -317 -113q-131 0 -294 63v360h71q0 -139 77 -242q86 -114 220 -114q106 0 173 62t67 168q0 109 -101 204q-40 37 -193 139q-128 85 -190 138q-93 80 -93 199q0 157 146 264q131 96 295 96q89 0 237 -51v-314h-73q-7 119 -70 203
q-72 94 -186 94q-84 0 -140 -50.5t-56 -134.5q0 -102 116 -206q45 -41 200 -144q137 -92 180 -135q86 -87 86 -197z" />
    <glyph glyph-name="T" unicode="T" horiz-adv-x="1067" 
d="M1061 1073h-71q-3 287 -304 287h-54v-1024q0 -155 152 -159v-48h-489v48q88 1 120 35.5t32 123.5v1024h-69q-277 0 -286 -287h-70v380h44q13 -45 39 -45h874q34 0 34 45h48v-380z" />
    <glyph glyph-name="U" unicode="U" horiz-adv-x="1387" 
d="M1366 1360q-187 -28 -187 -625q0 -213 -2 -238q-11 -140 -67 -223q-116 -174 -416 -174q-315 0 -436 179q-59 87 -59 212v710q0 89 -31.5 123t-120.5 36v48h489v-48q-89 -2 -120.5 -36t-31.5 -123v-702q0 -191 146 -283q84 -53 207 -53q256 0 334 180q38 88 38 269
q0 297 -14 414q-39 322 -170 334v48h441v-48z" />
    <glyph glyph-name="V" unicode="V" horiz-adv-x="1259" 
d="M1259 1360q-109 -1 -207 -247l-408 -1028h-59l-360 1045q-79 228 -187 230v48h354v-48q-39 -1 -39 -29q0 -16 11 -48l317 -914l203 515q84 213 84 342q0 132 -158 134v48h449v-48z" />
    <glyph glyph-name="W" unicode="W" horiz-adv-x="1984" 
d="M1983 1360q-109 -2 -219 -278l-400 -1000h-60l-290 845q-98 -176 -158 -327l-204 -518h-58l-337 994q-68 200 -130 252q-35 29 -71 32v48h349v-48q-37 -1 -37 -33q0 -8 4 -20l317 -938l167 420q73 184 73 350q0 212 -168 221v48h354v-48q-43 -1 -43 -32q0 -9 4 -21
l321 -938l204 517q94 238 94 339q0 80 -43 109q-35 24 -119 26v48h450v-48z" />
    <glyph glyph-name="X" unicode="X" horiz-adv-x="1237" 
d="M1224 129h-398v48q40 2 40 31q0 9 -7 21l-288 481q-228 -298 -228 -432q0 -99 135 -101v-48h-475v48q131 11 294 239l245 343l-222 371q-132 220 -254 230v48h390v-48q-40 -2 -40 -25q0 -8 4 -15l240 -400q176 247 176 342q0 96 -152 98v48h479v-48q-138 -20 -292 -230
l-187 -255l319 -524q65 -106 144 -149q32 -17 77 -25v-48z" />
    <glyph glyph-name="Y" unicode="Y" horiz-adv-x="1195" 
d="M1236 1360q-109 -2 -239 -224l-303 -516v-284q0 -154 152 -159v-48h-489v48q88 1 120 35.5t32 123.5v284l-250 502q-49 99 -87 149q-66 88 -137 89v48h363v-48q-38 -1 -38 -27q0 -10 4 -18l314 -624q243 380 243 554q0 70 -49 96q-34 18 -114 19v48h478v-48z" />
    <glyph glyph-name="Z" unicode="Z" horiz-adv-x="1216" 
d="M1190 497l-82 -412h-48q-2 44 -24 44h-958v58l823 1173h-296q-189 0 -276 -50q-114 -65 -122 -237h-69v380h46q2 -45 38 -45h896v-59l-826 -1172h301q226 0 337 54q149 72 188 266h72z" />
    <glyph glyph-name="bracketleft" unicode="[" horiz-adv-x="640" 
d="M539 -101h-325v1645h325v-62h-182v-1521h182v-62z" />
    <glyph glyph-name="backslash" unicode="\" horiz-adv-x="1045" 
d="M932 92h-110l-709 1463h110z" />
    <glyph glyph-name="bracketright" unicode="]" horiz-adv-x="640" 
d="M419 -101h-284v62h141v1520h-141v61h284v-1643z" />
    <glyph glyph-name="asciicircum" unicode="^" horiz-adv-x="960" 
d="M923 691h-92l-350 586l-350 -586h-94l431 717h30z" />
    <glyph glyph-name="underscore" unicode="_" horiz-adv-x="1024" 
d="M1036 -256h-1048v102h1048v-102z" />
    <glyph glyph-name="grave" unicode="`" horiz-adv-x="683" 
d="M409 1214l-36 -21l-139 156q-66 74 -66 97q0 62 60 62q36 0 67 -63z" />
    <glyph glyph-name="a" unicode="a" horiz-adv-x="960" 
d="M948 249q-152 -149 -248 -149q-86 0 -86 96v148q-238 -244 -375 -244q-79 0 -131 62q-50 59 -50 139q0 217 556 468v120q0 127 -124 127q-114 0 -191 -115q-64 -95 -77 -220h-67v240q230 152 433 152q97 0 137.5 -43t40.5 -141v-625q0 -45 41 -45q40 0 141 92v-62z
M625 688q-144 -30 -261 -103q-154 -96 -154 -217q0 -62 38.5 -99t100.5 -37q145 0 219 166q55 123 57 290z" />
    <glyph glyph-name="b" unicode="b" horiz-adv-x="1045" 
d="M1007 712q0 -127 -54 -252t-147 -208q-84 -75 -168 -101q-71 -22 -196 -22h-92q-82 0 -106 -5q-60 -12 -83 -58h-67q57 103 57 237v985q0 88 -67 88q-31 0 -85 -23v49l333 138v-41q-28 -16 -28 -53v-685q140 160 184 200q124 111 238 111q139 0 215 -115q66 -99 66 -245z
M857 610q0 127 -45 215q-57 112 -173 112q-158 0 -261 -183q-87 -155 -87 -325q0 -64 13 -144q122 -75 260 -75q156 0 232 129q61 104 61 271z" />
    <glyph glyph-name="c" unicode="c" horiz-adv-x="917" 
d="M842 374q-219 -274 -424 -274q-168 0 -274 134q-99 125 -99 297q0 215 140 375q146 168 358 168q125 0 271 -66v-261h-73q-3 116 -72 189q-71 77 -185 77q-142 0 -224 -128q-71 -110 -71 -260q0 -154 75 -265q86 -127 233 -127q149 0 345 211v-70z" />
    <glyph glyph-name="d" unicode="d" horiz-adv-x="1067" 
d="M1048 201l-255 -100h-47v323q-124 -158 -175 -207q-122 -117 -236 -117q-138 0 -220 131q-71 113 -71 259q0 203 145 387q155 196 353 196q86 0 204 -53v269q0 85 -65 85q-34 0 -86 -21v55l346 132v-41q-43 -17 -43 -68v-1118q0 -83 71 -83q32 0 79 22v-51zM758 766
q0 68 -12 121q-139 115 -268 115q-139 0 -218 -154q-64 -125 -64 -278q0 -120 53 -219q64 -119 175 -119q147 0 249 201q85 168 85 333z" />
    <glyph glyph-name="e" unicode="e" horiz-adv-x="896" 
d="M856 380q-223 -280 -435 -280q-161 0 -273 141q-104 131 -104 296q0 198 126 360q136 174 329 174q149 0 239 -108q83 -100 88 -253h-645q-2 -39 -2 -57q0 -160 81 -279q92 -135 245 -135q172 0 351 207v-66zM662 760q-11 105 -64 171q-61 77 -160 77q-98 0 -168 -77
q-65 -70 -80 -171h472z" />
    <glyph glyph-name="f" unicode="f" horiz-adv-x="640" 
d="M695 1223h-72q-5 184 -123 184q-80 0 -121 -92q-32 -71 -32 -160q0 -187 173 -187h83v-47h-245v-588q0 -84 34.5 -119t118.5 -37v-48h-458v48q84 2 118.5 37t34.5 119v588h-153v47h44q80 0 118 135q44 156 130 261q108 132 248 132q37 0 102 -20v-253z" />
    <glyph glyph-name="g" unicode="g" horiz-adv-x="1024" 
d="M1005 33q0 -175 -237 -279q-187 -82 -388 -82q-143 0 -258 45q-156 61 -156 182q0 123 193 213q122 57 297 91q-73 53 -73 111q0 69 135 175q-11 -1 -36 -5q-77 -12 -108 -12q-117 0 -196 60q-88 66 -88 179q0 150 148 259q137 101 291 101q65 0 185 -49q137 -56 215 -56
h71v-47h-204q24 -52 24 -95q0 -83 -60 -164q-38 -51 -126 -127q-119 -102 -119 -145q0 -58 192 -121q135 -45 190 -77q108 -64 108 -157zM663 769q0 97 -50 165q-56 77 -149 77q-100 0 -159 -74q-54 -67 -54 -170q0 -98 52 -167q57 -76 152 -76t154 77q54 70 54 168z
M864 -24q0 62 -89 107q-17 8 -142 53l-115 41q-411 -104 -411 -261q0 -99 129 -148q92 -35 209 -35q143 0 262 51q157 67 157 192z" />
    <glyph glyph-name="h" unicode="h" horiz-adv-x="1131" 
d="M1089 129h-349v48q44 2 44 54v597q0 130 -106 130q-151 0 -253 -224q-84 -184 -84 -355q0 -202 123 -202h40v-48h-454v48q83 2 117 37.5t34 118.5v987q0 59 -66 59q-37 0 -85 -19v48l344 137v-43q-41 -16 -41 -72v-688q234 332 420 332q163 0 163 -219v-522
q0 -85 34 -119.5t119 -36.5v-48z" />
    <glyph glyph-name="i" unicode="i" horiz-adv-x="555" 
d="M384 1393q0 -40 -28 -67.5t-68 -27.5t-67.5 27.5t-27.5 67.5q0 39 27 67.5t66 28.5q41 0 69.5 -27.5t28.5 -68.5zM517 129h-458v48q84 2 118.5 37t34.5 119v547q0 63 -72 63q-26 0 -57 -13q-16 -7 -24 -9v51l256 101h49v-740q0 -84 34.5 -119t118.5 -37v-48z" />
    <glyph glyph-name="j" unicode="j" horiz-adv-x="533" 
d="M378 1393q0 -39 -28 -67t-67 -28q-40 0 -67.5 27.5t-27.5 67.5q0 38 27.5 66.5t65.5 28.5q41 0 69 -27t28 -68zM358 204q0 -172 -103 -341q-117 -192 -278 -192q-50 0 -107 23v271h72q1 -77 26 -130q34 -71 101 -71t106 87q31 70 31 145v849q0 93 -71 93q-34 0 -81 -22
v51l259 104h45v-867z" />
    <glyph glyph-name="k" unicode="k" horiz-adv-x="1024" 
d="M1049 129h-308l-386 489l-1 -308q0 -130 154 -133v-48h-457v48q84 2 118 37t34 119v936q0 107 -72 107q-29 0 -80 -16v48l344 137v-41q-40 -13 -40 -60v-826l229 195q75 64 75 122q0 62 -120 64v46h469v-46q-123 -2 -305 -153l-203 -168l197 -250q197 -250 352 -251v-48z
" />
    <glyph glyph-name="l" unicode="l" horiz-adv-x="555" 
d="M518 129h-459v48q84 2 119 37t35 119v951q0 92 -76 92q-32 0 -78 -16v48l349 137v-41q-43 -21 -43 -73v-1098q0 -84 34.5 -119t118.5 -37v-48z" />
    <glyph glyph-name="m" unicode="m" horiz-adv-x="1643" 
d="M1607 129h-348v48q43 1 43 47v573q0 161 -106 161q-144 0 -235 -219q-71 -172 -71 -341q0 -110 28 -157q37 -62 136 -64v-48h-345v48q42 2 42 37v615q0 51 -24 86q-28 41 -76 41q-148 0 -238 -219q-70 -171 -70 -343q0 -109 27 -155q36 -62 135 -62v-48h-453v48
q82 2 116 37.5t34 118.5v524q0 83 -65 83q-32 0 -85 -22v50l255 102h47v-304q109 145 163 197q114 109 223 109q163 0 163 -233q0 -26 -1 -63q113 142 166 191q115 106 222 106q76 0 120 -51.5t44 -128.5v-560q0 -84 34.5 -119t118.5 -37v-48z" />
    <glyph glyph-name="n" unicode="n" horiz-adv-x="1131" 
d="M1089 129h-348v48q42 2 42 49v618q0 115 -97 115q-157 0 -260 -226q-83 -183 -83 -362q0 -106 29 -145q35 -47 135 -49v-48h-455v48q84 2 118 37t34 119v511q0 99 -66 99q-24 0 -86 -25v50l260 106h42v-329q107 143 177 209q127 120 236 120q169 0 169 -217v-524
q0 -84 34.5 -119t118.5 -37v-48z" />
    <glyph glyph-name="o" unicode="o" horiz-adv-x="1003" 
d="M958 637q0 -215 -144 -374q-149 -163 -362 -163q-192 0 -303 122q-107 118 -107 312q0 213 142 372q148 165 358 165q194 0 307 -121q109 -118 109 -313zM822 526q0 121 -53 232q-55 118 -151 182q-79 53 -161 53q-140 0 -214 -104q-66 -91 -66 -236q0 -168 103 -309
q113 -154 275 -154q127 0 202 108q65 95 65 228z" />
    <glyph glyph-name="p" unicode="p" horiz-adv-x="1088" 
d="M1043 702q0 -219 -142 -403q-153 -199 -366 -199q-89 0 -197 47v-236q0 -85 35 -121t120 -37v-49h-457v49q83 1 117.5 37.5t34.5 120.5v956q0 75 -59 75q-21 0 -93 -26v50l257 105h45v-325q107 147 174 211q122 116 238 116q139 0 221 -120q72 -106 72 -251zM892 611
q0 129 -44 223q-58 124 -172 124q-159 0 -263 -209q-86 -173 -86 -348q0 -47 11 -126q140 -114 248 -114q150 0 236 158q70 129 70 292z" />
    <glyph glyph-name="q" unicode="q" horiz-adv-x="1067" 
d="M1051 -298h-458v48q83 1 117 37.5t34 120.5v500q-126 -144 -193 -200q-129 -108 -247 -108q-128 0 -200 125q-60 104 -60 241q0 156 88 305q90 153 228 218q114 54 285 52l96 -1q138 -1 167 61h53q-63 -110 -63 -297v-896q0 -84 35 -120.5t118 -37.5v-48zM757 762
q0 57 -13 130q-134 78 -253 78q-145 0 -224 -144q-64 -117 -64 -275q0 -121 44 -209q57 -113 167 -113q157 0 259 197q84 163 84 336z" />
    <glyph glyph-name="r" unicode="r" horiz-adv-x="811" 
d="M787 748h-71q-1 181 -105 181q-128 0 -205 -222q-59 -171 -59 -328q0 -125 51 -166q45 -36 173 -36v-48h-520v48q84 2 119 37t35 119v519q0 88 -65 88q-27 0 -89 -22v48l263 107h44v-325q189 323 350 323q33 0 79 -15v-308z" />
    <glyph glyph-name="s" unicode="s" horiz-adv-x="747" 
d="M694 409q0 -132 -119 -224q-110 -85 -246 -85q-107 0 -247 60v277h68q7 -113 63 -188q64 -86 171 -86q75 0 125 46t50 120t-61 133q-28 27 -125 88l-128 81q-132 93 -132 193q0 117 109 188q94 61 218 61q91 0 196 -40v-262h-72q-1 97 -52 167q-57 78 -150 78
q-52 0 -85.5 -33.5t-33.5 -85.5q0 -63 62 -119q28 -26 115 -80q156 -98 177 -115q97 -80 97 -174z" />
    <glyph glyph-name="t" unicode="t" horiz-adv-x="597" 
d="M579 923h-245v-642q0 -63 50 -63q49 0 146 80q11 9 17 13v-58q-170 -153 -271 -153q-94 0 -94 145v678h-153v45q87 0 124.5 35.5t37.5 122.5v151l205 83v-52q-63 -15 -63 -142q0 -137 66 -176q37 -22 97 -22h83v-45z" />
    <glyph glyph-name="u" unicode="u" horiz-adv-x="1131" 
d="M1088 207l-276 -110h-49v332q-108 -147 -177 -212q-123 -117 -241 -117q-165 0 -165 234v547q0 87 -93 87q-20 0 -56 -6v47l343 61v-39q-42 -12 -42 -69v-619q0 -131 99 -131q152 0 257 224q86 184 86 356q0 178 -107 178q-19 0 -57 -8v47l348 61v-39q-44 -7 -44 -69
v-643q0 -93 69 -93q41 0 105 30v-49z" />
    <glyph glyph-name="v" unicode="v" horiz-adv-x="981" 
d="M991 997q-114 -12 -215 -251l-281 -663h-53l-255 720q-68 193 -174 194v48h322v-48q-38 0 -38 -36q0 -20 10 -48l213 -600l126 313q63 156 63 252q0 117 -145 119v48h427v-48z" />
    <glyph glyph-name="w" unicode="w" horiz-adv-x="1536" 
d="M1550 997q-81 -12 -146 -114q-35 -55 -85 -174l-262 -626h-60l-214 616q-48 -90 -73 -142l-35 -72q-24 -49 -34 -74l-134 -328h-60l-230 667q-38 111 -64 154q-53 89 -127 93v48h320v-48q-39 -1 -39 -31q0 -14 7 -34l214 -621l113 272q72 173 72 293q0 118 -142 121v48
h325v-48q-43 0 -43 -29q0 -13 10 -42l214 -615l124 302q66 161 66 267q0 117 -146 117v48h429v-48z" />
    <glyph glyph-name="x" unicode="x" horiz-adv-x="1067" 
d="M1050 129h-358v48q33 0 33 21q0 18 -17 38l-202 293q-150 -177 -150 -266q0 -84 120 -86v-48h-445v48q126 11 310 234l135 164l-168 238q-128 181 -237 184v48h366v-48q-40 -1 -40 -28q0 -12 8 -24l169 -246q130 150 130 224q0 72 -99 74v48h405v-48q-101 -5 -229 -134
q-46 -47 -176 -211l202 -285q131 -185 243 -190v-48z" />
    <glyph glyph-name="y" unicode="y" horiz-adv-x="960" 
d="M976 997q-64 -4 -98 -41q-43 -47 -89 -165l-343 -890q-79 -205 -298 -224l-162 191l54 43q79 -98 176 -98q106 0 159 107q17 34 67 162l16 41l-273 679q-38 95 -65 130q-49 64 -122 65v48h324v-48q-38 -2 -38 -24q0 -10 6 -25l248 -617l98 261q66 176 66 292
q0 113 -143 113v48h417v-48z" />
    <glyph glyph-name="z" unicode="z" horiz-adv-x="917" 
d="M853 83h-47q-3 46 -82 46h-663v48l584 820h-188q-253 0 -266 -225h-66v318h48v-8q0 -37 52 -37h604v-49l-586 -819h214q319 0 329 256h67v-350z" />
    <glyph glyph-name="braceleft" unicode="{" horiz-adv-x="981" 
d="M832 -320q-152 27 -249 129q-103 107 -103 257q0 61 26 177q19 85 19 112q0 96 -72 163q-68 62 -166 73v38q239 52 239 219q0 47 -16 122q-27 126 -27 188q0 151 101 257q96 102 248 127v-40q-94 -14 -155 -73q-67 -64 -67 -155q0 -46 13 -115q30 -160 30 -210
q0 -224 -286 -336q283 -116 283 -350q0 -49 -27 -179q-17 -82 -17 -135q0 -180 226 -233v-36z" />
    <glyph glyph-name="bar" unicode="|" horiz-adv-x="1045" 
d="M577 -296h-109v1841h109v-1841z" />
    <glyph glyph-name="braceright" unicode="}" horiz-adv-x="981" 
d="M695 593q-239 -52 -239 -220q0 -52 15 -122q28 -131 28 -187q0 -151 -101 -257q-96 -102 -248 -127v40q94 14 155 73q66 63 66 155q0 48 -12 114q-30 164 -30 211q0 223 285 336q-282 116 -282 349q0 55 26 180q18 87 18 135q0 180 -226 233v36q151 -28 249 -129
q103 -107 103 -257q0 -57 -27 -177q-18 -80 -18 -113q0 -97 73 -162q64 -58 165 -74v-37z" />
    <glyph glyph-name="asciitilde" unicode="~" horiz-adv-x="1365" 
d="M1219 918q-3 -121 -65 -200q-68 -88 -185 -88q-84 0 -192 45l-182 76q-151 63 -219 63q-147 0 -182 -182h-47q4 118 62 197q66 91 178 91q96 0 381 -122q152 -65 219 -65q81 0 130 53q47 50 54 132h48z" />
    <glyph glyph-name="nonbreakingspace" unicode="&#xa0;" horiz-adv-x="500" 
 />
    <glyph glyph-name="exclamdown" unicode="&#xa1;" horiz-adv-x="650" 
d="M360 981q0 -36 -27 -63t-63 -27q-37 0 -63.5 26.5t-26.5 63.5q0 36 26.5 63t62.5 27q37 0 64 -26.5t27 -63.5zM438 81q-77 0 -220 -176v817l105 106v-480q0 -63 115 -267z" />
    <glyph glyph-name="cent" unicode="&#xa2;" horiz-adv-x="917" 
d="M842 554q-170 -209 -325 -258v-167h-72v153q-218 0 -333 181q-67 106 -67 248q0 185 110 339q114 161 290 199v159h72v-151q154 0 296 -62v-263h-69q-8 103 -66 175q-62 78 -161 88v-776q138 2 325 213v-78zM445 423v772q-123 -21 -194 -143q-63 -108 -63 -241
q0 -137 61 -243q71 -120 196 -145z" />
    <glyph glyph-name="sterling" unicode="&#xa3;" horiz-adv-x="1195" 
d="M1196 431q-53 -142 -92 -205q-77 -126 -169 -126q-79 0 -253.5 64.5t-253.5 64.5q-125 0 -215 -152h-59q29 51 129 194q89 127 113 169q63 110 63 190q0 91 -64 169h-241v69h106q56 0 56 35q0 11 -11 39q-30 76 -30 137q0 158 158 264q141 94 307 94q108 0 303 -62v-302
h-72q-13 127 -87 213q-81 95 -204 95q-109 0 -179.5 -70.5t-70.5 -179.5q0 -125 97 -197q87 -66 216 -66h145v-69h-287q13 -30 13 -57q0 -74 -75 -190q-17 -26 -124 -168q36 10 65 10q56 0 232 -59q220 -74 260 -74q101 0 180 185z" />
    <glyph glyph-name="currency" unicode="&#xa4;" horiz-adv-x="1024" 
d="M995 382l-58 -55l-143 143q-134 -103 -270 -103q-76 0 -158 26q-91 29 -137 77l-146 -143l-56 55l144 145q-102 117 -102 282q0 157 102 283l-144 141l56 57l146 -142q118 102 285 102q162 0 280 -102l143 142l58 -57l-144 -141q103 -132 103 -281q0 -154 -103 -284z
M874 808q0 96 -50.5 182.5t-133.5 131.5q-86 47 -178 47q-152 0 -257 -105t-105 -258q0 -150 105.5 -254.5t255.5 -104.5t256.5 105.5t106.5 255.5z" />
    <glyph glyph-name="yen" unicode="&#xa5;" horiz-adv-x="1195" 
d="M1236 1360q-109 -2 -239 -224l-262 -446h417v-72h-458v-145h458v-72h-458v-65q0 -154 152 -159v-48h-489v48q88 1 120 35.5t32 123.5v65h-401v72h401v145h-401v72h366l-215 432q-49 99 -87 149q-66 88 -137 89v48h363v-48q-38 -1 -38 -27q0 -10 4 -18l314 -624
q243 380 243 554q0 70 -49 96q-34 18 -114 19v48h478v-48z" />
    <glyph glyph-name="brokenbar" unicode="&#xa6;" horiz-adv-x="410" 
d="M244 809h-83v742h83v-742zM244 -313h-83v742h83v-742z" />
    <glyph glyph-name="section" unicode="&#xa7;" horiz-adv-x="853" 
d="M763 622q0 -206 -233 -314q116 -80 157 -125q73 -79 73 -178q0 -150 -137 -244q-123 -84 -279 -84q-115 0 -238 57v273h74q2 -111 55 -184q60 -83 167 -83q92 0 160.5 61.5t68.5 152.5q0 89 -84 162q-31 27 -160 105q-139 84 -196 141q-96 96 -96 212q0 215 255 317
q-114 73 -157 120q-72 78 -72 177q0 148 113 230q100 73 254 73q111 0 222 -44v-253h-70q-14 102 -66 167q-60 76 -156 76q-77 0 -130.5 -50t-53.5 -127q0 -83 76 -153q33 -30 146 -102q154 -98 209 -154q98 -101 98 -229zM659 564q0 90 -85 169q-47 43 -163 111
q-201 -50 -201 -215q0 -85 99 -171q50 -43 171 -116q179 89 179 222z" />
    <glyph glyph-name="dieresis" unicode="&#xa8;" horiz-adv-x="683" 
d="M626 1350q0 -42 -29.5 -71.5t-71.5 -29.5t-71.5 29.5t-29.5 71.5q0 41 29 71t70 30q43 0 73 -29t30 -72zM262 1351q0 -42 -29.5 -71.5t-71.5 -29.5t-71 29.5t-29 71.5q0 41 29 70.5t70 29.5q43 0 72.5 -28.5t29.5 -71.5z" />
    <glyph glyph-name="copyright" unicode="&#xa9;" horiz-adv-x="1567" 
d="M1491 729q0 -296 -206 -501.5t-502 -205.5q-297 0 -502 205t-205 502t205.5 502.5t501.5 205.5q297 0 502.5 -205.5t205.5 -502.5zM1437 728q0 177 -90.5 332t-244.5 238.5t-319 83.5q-274 0 -464 -190t-190 -464t190 -464t464 -190q273 0 463.5 190.5t190.5 463.5z
M1140 512q-128 -218 -349 -218q-189 0 -309 128q-117 125 -117 315q0 189 120 321q123 136 310 136q80 0 172 -37q37 -15 62 -15q39 0 40 55h30l19 -293h-29q-70 246 -284 246q-150 0 -234 -133q-71 -113 -71 -272q0 -168 75 -272q85 -118 247 -118q173 0 296 172z" />
    <glyph glyph-name="ordfeminine" unicode="&#xaa;" horiz-adv-x="640" 
d="M628 896q-100 -100 -164 -100q-57 0 -57 68v95q-154 -160 -245 -160q-54 0 -89 39.5t-35 93.5q0 138 369 310v68q0 95 -78 95q-80 0 -131 -74q-44 -63 -50 -148h-46v157q151 101 288 101q117 0 117 -93v-434q0 -38 24 -38q33 0 97 58v-38zM413 1183q-96 -20 -173 -67
q-101 -62 -101 -142q0 -90 91 -90q96 0 145 108q36 80 38 191z" />
    <glyph glyph-name="guillemotleft" unicode="&#xab;" horiz-adv-x="854" 
d="M804 129h-93l-340 400l340 393h87l-226 -393zM497 129h-89l-338 400l340 393h87l-226 -393z" />
    <glyph glyph-name="logicalnot" unicode="&#xac;" horiz-adv-x="1365" 
d="M1222 490h-108v466h-972v108h1080v-574z" />
    <glyph glyph-name="sfthyphen" unicode="&#xad;" horiz-adv-x="1155" 
d="M1106 926h-1070v81h1070v-81z" />
    <glyph glyph-name="registered" unicode="&#xae;" horiz-adv-x="1567" 
d="M1491 729q0 -296 -206 -501.5t-502 -205.5q-297 0 -502 205t-205 502t205.5 502.5t501.5 205.5q297 0 502.5 -205.5t205.5 -502.5zM1437 728q0 177 -90.5 332t-244.5 238.5t-319 83.5q-274 0 -464 -190t-190 -464t190 -464t464 -190q273 0 463.5 190.5t190.5 463.5z
M1190 304h-204l-81 114l-210 291h-71v-228q0 -110 47 -132q17 -8 81 -9v-36h-366v36q83 0 104 29q17 23 17 111v526q0 78 -21 103q-24 29 -100 28v32h254q129 0 181 -9q102 -18 157 -78q51 -56 51 -137q0 -94 -66 -152q-60 -53 -157 -62l165 -224q66 -89 91 -113
q57 -53 128 -54v-36zM899 957q0 168 -189 168q-45 0 -86 -17v-357q20 -1 30 -1q245 0 245 207z" />
    <glyph glyph-name="macron" unicode="&#xaf;" horiz-adv-x="683" 
d="M603 1297h-521v108h521v-108z" />
    <glyph glyph-name="degree" unicode="&#xb0;" horiz-adv-x="768" 
d="M713 1139q0 -127 -89 -216t-216 -89q-128 0 -216.5 88.5t-88.5 216.5t88.5 216.5t216.5 88.5q129 0 217 -88t88 -217zM649 1139q0 102 -69.5 171.5t-171.5 69.5q-101 0 -171 -70t-70 -171q0 -102 69.5 -171.5t171.5 -69.5q101 0 171 70t70 171z" />
    <glyph glyph-name="plusminus" unicode="&#xb1;" horiz-adv-x="946" 
d="M835 452h-321v-253h-84v253h-325v83h325v328h84v-328h321v-83zM835 46h-730v83h730v-83z" />
    <glyph glyph-name="twosuperior" unicode="&#xb2;" horiz-adv-x="725" 
d="M640 989l-48 -239h-33q-1 27 -18 27h-476v37q177 197 239 277q161 208 161 316q0 93 -89 93q-131 0 -188 -222h-49v175q168 88 303 88q173 0 173 -151q0 -68 -60 -143q-27 -34 -113 -113l-254 -234h313q85 0 104 89h35z" />
    <glyph glyph-name="threesuperior" unicode="&#xb3;" horiz-adv-x="725" 
d="M637 1038q0 -122 -113 -205q-103 -76 -229 -76q-89 0 -188 36v228h49q7 -86 55 -150q55 -72 136 -72q71 0 111 46t40 118q0 192 -267 200v37q87 14 148 64q70 58 70 140q0 92 -87 92q-75 0 -125 -76q-44 -66 -47 -146h-49v176q177 90 290 90q153 0 153 -121
q0 -84 -97 -148q-52 -34 -170 -80q152 0 205 -14q115 -30 115 -139z" />
    <glyph glyph-name="acute" unicode="&#xb4;" horiz-adv-x="683" 
d="M516 1449q0 -25 -35 -64l-169 -188l-42 29l128 238q24 44 57 44q24 0 42.5 -17.5t18.5 -41.5z" />
    <glyph glyph-name="micro" unicode="&#xb5;" horiz-adv-x="1045" 
d="M1029 329q-6 -97 -50 -159q-51 -73 -143 -73q-141 0 -161 195q-175 -191 -322 -191q-125 0 -183 122v-43q1 -34 1 -47q1 -97 7 -147q4 -34 19 -88q22 -81 22 -115q0 -38 -20 -66q-22 -31 -59 -31t-60 30q-22 27 -22 65q0 32 21 110q29 106 32 187q1 94 8 375l1 36v556
h135v-610q0 -225 167 -225q102 0 253 143v692h132v-636q0 -95 7 -129q17 -85 77 -85q69 0 95 134h43z" />
    <glyph glyph-name="paragraph" unicode="&#xb6;" horiz-adv-x="896" 
d="M899 1372q-95 -5 -118 -41q-17 -27 -17 -134v-1525h-58v1682h-187v-1682h-59v1011q-467 -10 -467 348q0 120 68 219q71 103 185 132q101 26 273 26h380v-36z" />
    <glyph glyph-name="periodcentered" unicode="&#xb7;" horiz-adv-x="405" 
d="M326 768q0 -50 -35.5 -85t-85.5 -35q-49 0 -84.5 35.5t-35.5 84.5t34.5 85t83.5 36q51 0 87 -35t36 -86z" />
    <glyph glyph-name="cedilla" unicode="&#xb8;" horiz-adv-x="683" 
d="M543 -91q0 -66 -60 -106q-53 -36 -122 -36q-56 0 -144 25v55q81 -29 128 -29q86 0 86 72q0 78 -99 78h-54v184h54v-135q25 2 37 2q174 0 174 -110z" />
    <glyph glyph-name="onesuperior" unicode="&#xb9;" horiz-adv-x="725" 
d="M551 766h-348v36h31q77 0 77 69v467q0 77 -54 77q-32 0 -89 -20v35l309 110v-30q-33 -6 -33 -51v-588q0 -69 70 -69h37v-36z" />
    <glyph glyph-name="ordmasculine" unicode="&#xba;" horiz-adv-x="661" 
d="M638 1149q0 -139 -97 -246t-235 -107q-127 0 -200.5 79t-73.5 206q0 140 94 246q97 110 235 110q130 0 205 -79q72 -78 72 -209zM548 1079q0 110 -64 203q-71 104 -177 104q-91 0 -141 -68q-45 -61 -45 -155q0 -111 67 -206q74 -104 181 -104q87 0 136 72q43 63 43 154z
" />
    <glyph glyph-name="guillemotright" unicode="&#xbb;" horiz-adv-x="854" 
d="M784 529l-338 -400h-89l226 400l-226 393h87zM483 529l-340 -400h-93l232 400l-226 393h87z" />
    <glyph glyph-name="onequarter" unicode="&#xbc;" horiz-adv-x="1749" 
d="M1664 329h-113v-104q0 -76 66 -76h23v-35h-331v35h30q79 0 79 76v104h-340v36l228 265q34 40 193 256h52v-489h113v-68zM1377 1542l-926 -1445h-88l928 1445h86zM558 766h-348v36h31q77 0 77 69v467q0 77 -54 77q-32 0 -89 -20v35l309 112v-32q-33 -6 -33 -51v-588
q0 -69 70 -69h37v-36zM1418 397v276q-109 -96 -257 -276h257z" />
    <glyph glyph-name="onehalf" unicode="&#xbd;" horiz-adv-x="1749" 
d="M1663 333l-48 -239h-33q-1 28 -17 28h-477v36q181 201 239 276q162 209 162 316q0 95 -90 95q-130 0 -188 -223h-49v180q168 84 304 84q173 0 173 -152q0 -76 -81 -168q-29 -33 -140 -131l-207 -191h313q88 0 104 89h35zM1377 1542l-926 -1448h-88l928 1448h86zM558 766
h-348v36h31q77 0 77 70v466q0 77 -54 77q-31 0 -89 -20v35l309 112v-32q-33 -6 -33 -51v-587q0 -70 70 -70h37v-36z" />
    <glyph glyph-name="threequarters" unicode="&#xbe;" horiz-adv-x="1749" 
d="M1665 329h-114v-104q0 -76 66 -76h23v-35h-326v35h26q78 0 78 76v104h-340v36l219 253q114 132 202 268h52v-489h114v-68zM1400 1542l-924 -1445h-90l928 1445h86zM644 1038q0 -122 -113 -205q-104 -76 -229 -76q-90 0 -188 36v228h49q7 -86 55 -150q55 -72 136 -72
q71 0 111 46t40 118q0 192 -267 200v37q87 14 148 64q70 58 70 140q0 92 -87 92q-75 0 -125 -76q-44 -66 -47 -146h-49v176q177 90 290 90q153 0 153 -121q0 -129 -267 -228q153 0 205 -14q115 -31 115 -139zM1418 397v276q-111 -98 -257 -276h257z" />
    <glyph glyph-name="questiondown" unicode="&#xbf;" horiz-adv-x="917" 
d="M603 886q0 -50 -35 -85t-85 -35t-84.5 35t-34.5 85q0 49 34 84t83 35q51 0 86.5 -34t35.5 -85zM782 -180q-273 -151 -505 -151q-120 0 -197 51q-90 59 -90 174q0 96 68 190q38 53 141 151q124 118 168 192q63 105 64 243h100q-2 -155 -43 -261q-36 -93 -138 -227
q-142 -186 -142 -284q0 -79 49.5 -125.5t129.5 -46.5q144 0 239 130q84 115 90 266h66v-302z" />
    <glyph glyph-name="Agrave" unicode="&#xc0;" horiz-adv-x="1237" 
d="M1235 129h-359v48h23q17 0 17 33q0 10 -4 22l-120 348h-437q-69 -194 -69 -289q0 -114 118 -114h53v-48h-448v48q113 6 204 239l410 1045h59l354 -1022q38 -110 69 -162q58 -97 130 -100v-48zM770 641l-182 532l-210 -532h392zM725 1537l-36 -21l-139 156q-66 74 -66 97
q0 62 60 62q36 0 67 -63z" />
    <glyph glyph-name="multiply" unicode="&#xd7;" horiz-adv-x="946" 
d="M802 219l-58 -57l-277 275l-277 -275l-59 57l275 278l-275 278l62 56l274 -276l277 276l58 -56l-279 -278z" />
    <glyph glyph-name="agrave" unicode="&#xe0;" horiz-adv-x="960" 
d="M948 249q-152 -149 -248 -149q-86 0 -86 96v148q-238 -244 -375 -244q-79 0 -131 62q-50 59 -50 139q0 217 556 468v120q0 127 -124 127q-114 0 -191 -115q-64 -95 -77 -220h-67v240q230 152 433 152q97 0 137.5 -43t40.5 -141v-625q0 -45 41 -45q40 0 141 92v-62z
M625 688q-144 -30 -261 -103q-154 -96 -154 -217q0 -62 38.5 -99t100.5 -37q145 0 219 166q55 123 57 290zM595 1214l-36 -21l-139 156q-66 74 -66 97q0 62 60 62q36 0 67 -63z" />
    <glyph glyph-name="acircumflex" unicode="&#xe2;" horiz-adv-x="960" 
d="M948 249q-152 -149 -248 -149q-86 0 -86 96v148q-238 -244 -375 -244q-79 0 -131 62q-50 59 -50 139q0 217 556 468v120q0 127 -124 127q-114 0 -191 -115q-64 -95 -77 -220h-67v240q230 152 433 152q97 0 137.5 -43t40.5 -141v-625q0 -45 41 -45q40 0 141 92v-62z
M625 688q-144 -30 -261 -103q-154 -96 -154 -217q0 -62 38.5 -99t100.5 -37q145 0 219 166q55 123 57 290zM754 1234h-66l-214 126l-211 -126h-68l279 242z" />
    <glyph glyph-name="ccedilla" unicode="&#xe7;" horiz-adv-x="917" 
d="M846 370q-199 -247 -385 -268v-88q36 4 58 4q146 0 146 -111q0 -67 -63 -107q-55 -35 -126 -35q-60 0 -128 30v56q62 -31 118 -31q98 0 98 74q0 75 -111 75q-16 0 -41 -2v135q-160 0 -265 140q-95 127 -95 292q0 289 254 464q104 72 240 72q125 0 274 -66v-259h-72
q-3 114 -75 191t-185 77q-141 0 -222 -130q-70 -112 -70 -261q0 -151 74 -263q85 -128 228 -128q149 0 348 209v-70z" />
    <glyph glyph-name="egrave" unicode="&#xe8;" horiz-adv-x="896" 
d="M856 380q-223 -280 -435 -280q-161 0 -273 141q-104 131 -104 296q0 198 126 360q136 174 329 174q149 0 239 -108q83 -100 88 -253h-645q-2 -39 -2 -57q0 -160 81 -279q92 -135 245 -135q172 0 351 207v-66zM662 760q-11 105 -64 171q-61 77 -160 77q-98 0 -168 -77
q-65 -70 -80 -171h472zM566 1214l-36 -21l-139 156q-66 74 -66 97q0 62 60 62q36 0 67 -63z" />
    <glyph glyph-name="eacute" unicode="&#xe9;" horiz-adv-x="896" 
d="M856 380q-223 -280 -435 -280q-161 0 -273 141q-104 131 -104 296q0 198 126 360q136 174 329 174q149 0 239 -108q83 -100 88 -253h-645q-2 -39 -2 -57q0 -160 81 -279q92 -135 245 -135q172 0 351 207v-66zM662 760q-11 105 -64 171q-61 77 -160 77q-98 0 -168 -77
q-65 -70 -80 -171h472zM626 1449q0 -25 -35 -64l-169 -188l-42 29l128 238q24 44 57 44q24 0 42.5 -17.5t18.5 -41.5z" />
    <glyph glyph-name="ecircumflex" unicode="&#xea;" horiz-adv-x="896" 
d="M856 380q-223 -280 -435 -280q-161 0 -273 141q-104 131 -104 296q0 198 126 360q136 174 329 174q149 0 239 -108q83 -100 88 -253h-645q-2 -39 -2 -57q0 -160 81 -279q92 -135 245 -135q172 0 351 207v-66zM662 760q-11 105 -64 171q-61 77 -160 77q-98 0 -168 -77
q-65 -70 -80 -171h472zM746 1234h-66l-214 126l-211 -126h-68l279 242z" />
    <glyph glyph-name="edieresis" unicode="&#xeb;" horiz-adv-x="896" 
d="M856 380q-223 -280 -435 -280q-161 0 -273 141q-104 131 -104 296q0 198 126 360q136 174 329 174q149 0 239 -108q83 -100 88 -253h-645q-2 -39 -2 -57q0 -160 81 -279q92 -135 245 -135q172 0 351 207v-66zM662 760q-11 105 -64 171q-61 77 -160 77q-98 0 -168 -77
q-65 -70 -80 -171h472zM766 1350q0 -42 -29.5 -71.5t-71.5 -29.5t-71.5 29.5t-29.5 71.5q0 41 29 71t70 30q43 0 73 -29t30 -72zM402 1351q0 -42 -29.5 -71.5t-71.5 -29.5t-71 29.5t-29 71.5q0 41 29 70.5t70 29.5q43 0 72.5 -28.5t29.5 -71.5z" />
    <glyph glyph-name="icircumflex" unicode="&#xee;" horiz-adv-x="555" 
d="M517 129h-458v48q84 2 118.5 37t34.5 119v547q0 63 -72 63q-26 0 -57 -13q-16 -7 -24 -9v51l256 101h49v-740q0 -84 34.5 -119t118.5 -37v-48zM541 1234h-66l-214 126l-211 -126h-68l279 242z" />
    <glyph glyph-name="idieresis" unicode="&#xef;" horiz-adv-x="555" 
d="M517 129h-458v48q84 2 118.5 37t34.5 119v547q0 63 -72 63q-26 0 -57 -13q-16 -7 -24 -9v51l256 101h49v-740q0 -84 34.5 -119t118.5 -37v-48zM559 1350q0 -42 -29.5 -71.5t-71.5 -29.5t-71.5 29.5t-29.5 71.5q0 41 29 71t70 30q43 0 73 -29t30 -72zM195 1351
q0 -42 -29.5 -71.5t-71.5 -29.5t-71 29.5t-29 71.5q0 41 29 70.5t70 29.5q43 0 72.5 -28.5t29.5 -71.5z" />
    <glyph glyph-name="ocircumflex" unicode="&#xf4;" horiz-adv-x="1003" 
d="M958 637q0 -215 -144 -374q-149 -163 -362 -163q-192 0 -303 122q-107 118 -107 312q0 213 142 372q148 165 358 165q194 0 307 -121q109 -118 109 -313zM822 526q0 121 -53 232q-55 118 -151 182q-79 53 -161 53q-140 0 -214 -104q-66 -91 -66 -236q0 -168 103 -309
q113 -154 275 -154q127 0 202 108q65 95 65 228zM785 1234h-66l-214 126l-211 -126h-68l279 242z" />
    <glyph glyph-name="divide" unicode="&#xf7;" horiz-adv-x="946" 
d="M549 772q0 -36 -23.5 -61.5t-59.5 -25.5q-35 0 -60.5 26t-25.5 61q0 36 25 59.5t61 23.5q35 0 59 -24t24 -59zM835 452h-730v83h730v-83zM549 215q0 -36 -23.5 -61t-59.5 -25q-35 0 -60.5 25.5t-25.5 60.5q0 36 25 60.5t61 24.5t59.5 -24.5t23.5 -60.5z" />
    <glyph glyph-name="ugrave" unicode="&#xf9;" horiz-adv-x="1131" 
d="M1088 207l-276 -110h-49v332q-108 -147 -177 -212q-123 -117 -241 -117q-165 0 -165 234v547q0 87 -93 87q-20 0 -56 -6v47l343 61v-39q-42 -12 -42 -69v-619q0 -131 99 -131q152 0 257 224q86 184 86 356q0 178 -107 178q-19 0 -57 -8v47l348 61v-39q-44 -7 -44 -69
v-643q0 -93 69 -93q41 0 105 30v-49zM627 1214l-36 -21l-139 156q-66 74 -66 97q0 62 60 62q36 0 67 -63z" />
    <glyph glyph-name="ucircumflex" unicode="&#xfb;" horiz-adv-x="1131" 
d="M1088 207l-276 -110h-49v332q-108 -147 -177 -212q-123 -117 -241 -117q-165 0 -165 234v547q0 87 -93 87q-20 0 -56 -6v47l343 61v-39q-42 -12 -42 -69v-619q0 -131 99 -131q152 0 257 224q86 184 86 356q0 178 -107 178q-19 0 -57 -8v47l348 61v-39q-44 -7 -44 -69
v-643q0 -93 69 -93q41 0 105 30v-49zM811 1234h-66l-214 126l-211 -126h-68l279 242z" />
    <glyph glyph-name="udieresis" unicode="&#xfc;" horiz-adv-x="1131" 
d="M1088 207l-276 -110h-49v332q-108 -147 -177 -212q-123 -117 -241 -117q-165 0 -165 234v547q0 87 -93 87q-20 0 -56 -6v47l343 61v-39q-42 -12 -42 -69v-619q0 -131 99 -131q152 0 257 224q86 184 86 356q0 178 -107 178q-19 0 -57 -8v47l348 61v-39q-44 -7 -44 -69
v-643q0 -93 69 -93q41 0 105 30v-49zM817 1350q0 -42 -29.5 -71.5t-71.5 -29.5t-71.5 29.5t-29.5 71.5q0 41 29 71t70 30q43 0 73 -29t30 -72zM453 1351q0 -42 -29.5 -71.5t-71.5 -29.5t-71 29.5t-29 71.5q0 41 29 70.5t70 29.5q43 0 72.5 -28.5t29.5 -71.5z" />
    <glyph glyph-name="ydieresis" unicode="&#xff;" horiz-adv-x="960" 
d="M976 997q-64 -4 -98 -41q-43 -47 -89 -165l-343 -890q-79 -205 -298 -224l-162 191l54 43q79 -98 176 -98q106 0 159 107q17 34 67 162l16 41l-273 679q-38 95 -65 130q-49 64 -122 65v48h324v-48q-38 -2 -38 -24q0 -10 6 -25l248 -617l98 261q66 176 66 292
q0 113 -143 113v48h417v-48zM770 1350q0 -42 -29.5 -71.5t-71.5 -29.5t-71.5 29.5t-29.5 71.5q0 41 29 71t70 30q43 0 73 -29t30 -72zM406 1351q0 -42 -29.5 -71.5t-71.5 -29.5t-71 29.5t-29 71.5q0 41 29 70.5t70 29.5q43 0 72.5 -28.5t29.5 -71.5z" />
    <glyph glyph-name="dotlessi" unicode="&#x131;" horiz-adv-x="555" 
d="M517 129h-458v48q84 2 118.5 37t34.5 119v547q0 63 -72 63q-26 0 -57 -13q-16 -7 -24 -9v51l256 101h49v-740q0 -84 34.5 -119t118.5 -37v-48z" />
    <glyph glyph-name="OE" unicode="&#x152;" horiz-adv-x="1771" 
d="M1735 463l-76 -381h-51l1 10q0 37 -44 37h-512q-33 0 -154 -14q-129 -15 -188 -15q-352 0 -536 275q-96 143 -96 328q0 315 246 540q201 184 501 184q41 0 104 -7q108 -12 168 -12h467q57 0 57 48h49v-383h-73q0 287 -313 287h-106q-12 -73 -12 -200q0 -165 61 -243
q70 -88 230 -88h89v-70l-368 -8v-574h112q311 0 368 286h76zM997 177v1077q-125 101 -294 101q-212 0 -338 -142q-120 -136 -120 -350q0 -187 85 -349q89 -172 245 -259.5t315 -87.5q66 0 107 10z" />
    <glyph glyph-name="oe" unicode="&#x153;" horiz-adv-x="1685" 
d="M1624 379q-239 -279 -439 -279q-198 0 -329 223q-165 -223 -401 -223q-187 0 -300 127q-108 121 -108 310q0 217 144 375q148 162 363 162q240 0 354 -208q154 208 349 208q154 0 243 -105q81 -97 88 -255h-644q-2 -34 -2 -49q0 -167 80 -287q92 -139 251 -139
q167 0 351 210v-70zM1423 763q-6 102 -63 171q-63 77 -161 77q-94 0 -165 -79q-64 -70 -83 -169h472zM819 527q0 165 -96 307q-108 159 -267 159q-134 0 -209 -104q-68 -93 -68 -231q0 -165 101 -308q111 -158 270 -158q133 0 205 105q64 92 64 230z" />
    <glyph glyph-name="Scaron" unicode="&#x160;" horiz-adv-x="917" 
d="M862 502q0 -168 -155 -289q-144 -113 -317 -113q-131 0 -294 63v360h71q0 -139 77 -242q86 -114 220 -114q106 0 173 62t67 168q0 109 -101 204q-40 37 -193 139q-128 85 -190 138q-93 80 -93 199q0 157 146 264q131 96 295 96q89 0 237 -51v-314h-73q-7 119 -70 203
q-72 94 -186 94q-84 0 -140 -50.5t-56 -134.5q0 -102 116 -206q45 -41 200 -144q137 -92 180 -135q86 -87 86 -197zM808 1800l-280 -242l-281 242h68l213 -132l214 132h66z" />
    <glyph glyph-name="scaron" unicode="&#x161;" horiz-adv-x="747" 
d="M694 409q0 -132 -119 -224q-110 -85 -246 -85q-107 0 -247 60v277h68q7 -113 63 -188q64 -86 171 -86q75 0 125 46t50 120t-61 133q-28 27 -125 88l-128 81q-132 93 -132 193q0 117 109 188q94 61 218 61q91 0 196 -40v-262h-72q-1 97 -52 167q-57 78 -150 78
q-52 0 -85.5 -33.5t-33.5 -85.5q0 -63 62 -119q28 -26 115 -80q156 -98 177 -115q97 -80 97 -174zM671 1473l-280 -242l-281 242h68l213 -132l214 132h66z" />
    <glyph glyph-name="Ydieresis" unicode="&#x178;" horiz-adv-x="1195" 
d="M1236 1360q-109 -2 -239 -224l-303 -516v-284q0 -154 152 -159v-48h-489v48q88 1 120 35.5t32 123.5v284l-250 502q-49 99 -87 149q-66 88 -137 89v48h363v-48q-38 -1 -38 -27q0 -10 4 -18l314 -624q243 380 243 554q0 70 -49 96q-34 18 -114 19v48h478v-48zM919 1675
q0 -42 -29.5 -71.5t-71.5 -29.5t-71.5 29.5t-29.5 71.5q0 41 29 71t70 30q43 0 73 -29t30 -72zM555 1676q0 -42 -29.5 -71.5t-71.5 -29.5t-71 29.5t-29 71.5q0 41 29 70.5t70 29.5q43 0 72.5 -28.5t29.5 -71.5z" />
    <glyph glyph-name="florin" unicode="&#x192;" horiz-adv-x="1088" 
d="M1088 1431l-162 -174l-34 30q11 23 11 42q0 35 -25.5 60t-60.5 25q-91 0 -160 -116q-61 -102 -61 -200q0 -127 187 -127h95l-11 -47h-312l-181 -720q-43 -172 -109 -278q-61 -100 -196 -224h-69q131 114 194 232q60 114 87 290l107 700h-140l13 47q80 1 133 53
q29 28 84 123q89 152 161 223q139 136 287 136q105 0 162 -75z" />
    <glyph glyph-name="circumflex" unicode="&#x2c6;" horiz-adv-x="683" 
d="M620 1234h-66l-214 126l-211 -126h-68l279 242z" />
    <glyph glyph-name="caron" unicode="&#x2c7;" horiz-adv-x="683" 
d="M617 1473l-280 -242l-281 242h68l213 -132l214 132h66z" />
    <glyph glyph-name="arabiccomma" unicode="&#x60c;" horiz-adv-x="382" 
d="M382 397q-167 -108 -167 -206q12 15 48 15q107 0 107 -111q0 -46 -32.5 -74t-79.5 -28q-62 0 -96 56q-28 47 -28 113q0 92 54 161q38 47 132 112q28 -13 62 -38z" />
    <glyph glyph-name="arabicsemicolon" unicode="&#x61b;" horiz-adv-x="385" 
d="M382 873q-167 -111 -167 -206q11 15 48 15q107 0 107 -110q0 -102 -112 -102q-62 0 -96 56q-28 47 -28 113q0 151 186 272q30 -12 62 -38zM359 102q0 -45 -30 -75.5t-75 -30.5q-44 0 -75 31t-31 75q0 42 32 74t74 32q45 0 75 -30.5t30 -75.5z" />
    <glyph glyph-name="arabicquestionmark" unicode="&#x61f;" horiz-adv-x="616" 
d="M617 1144q-5 -29 -54 -140q-127 24 -181 24q-58 0 -107 -33q-56 -37 -56 -92q0 -78 83 -150l154 -115q83 -71 83 -147q0 -38 -23 -86q-26 -53 -58 -65q-78 36 -114 62q67 47 67 109q0 38 -81 104q-120 98 -152 134q-81 92 -81 192q0 107 96 178q87 66 198 66
q163 0 226 -41zM528 86q0 -41 -31.5 -72t-72.5 -31q-42 0 -72.5 30.5t-30.5 72.5t30.5 72.5t72.5 30.5t73 -30.5t31 -72.5z" />
    <glyph glyph-name="hamza" unicode="&#x621;" horiz-adv-x="576" 
d="M575 257q-4 -73 -32 -118q-250 -14 -412 -147v55l6 30l129 80q-57 38 -68 51q-31 31 -31 76q0 55 83.5 129t139.5 74q103 0 140 -74l-79 -69q-45 41 -83 41q-26 0 -67 -26q-45 -27 -45 -50q0 -26 49 -61t76 -35q33 0 97 18q94 25 97 26z" />
    <glyph glyph-name="alefwithmaddaabove" unicode="&#x622;" horiz-adv-x="394" 
d="M387 1381q-40 -54 -118 -63q-132 -15 -134 -15q-6 -28 -34 -72q-28 1 -41 13q9 152 49 152q14 0 41.5 -6.5t41.5 -6.5q108 0 192 53zM320 101q-24 -57 -72 -126q-2 7 -4 22l-28 941q-1 43 -42 171q62 77 108 121q38 -44 38 -402v-727z" />
    <glyph glyph-name="alefwithhamzaabove" unicode="&#x623;" horiz-adv-x="377" 
d="M353 1392q-4 -26 -24 -71q-117 -5 -250 -94v36l3 20q31 19 82 45q-67 31 -67 78q0 32 53 81.5t86 49.5q54 0 96 -47l-50 -48q-24 28 -55 28q-52 0 -72 -45q26 -53 81 -63zM320 101q-24 -57 -72 -126q-2 7 -4 22l-28 941q-1 43 -42 171q62 77 108 121q38 -44 38 -402v-727
z" />
    <glyph glyph-name="wawwithhamzaabove" unicode="&#x624;" horiz-adv-x="634" 
d="M633 63q0 -130 -111 -340q-122 -231 -233 -231q-42 0 -102 23t-94 51q237 135 284 173q147 116 172 273q-65 -10 -169 -10t-136 45q-25 35 -25 143q0 79 61 181q67 112 140 112q114 0 171 -161q42 -117 42 -259zM539 165q0 57 -43 113q-46 60 -101 60q-36 0 -59 -55
q-19 -44 -19 -86q0 -58 95 -58q82 0 127 26zM465 807q-4 -26 -24 -71q-117 -5 -250 -94v36l3 20q31 19 82 45q-67 31 -67 78q0 32 53 81.5t86 49.5q54 0 96 -47l-50 -48q-24 28 -55 28q-52 0 -72 -45q26 -53 81 -63z" />
    <glyph glyph-name="alefwithhamzabelow" unicode="&#x625;" horiz-adv-x="283" 
d="M276 101q0 -33 -72 -126q-10 17 -12 119q-2 73 -1 194q2 160 2 139q0 489 -62 682q33 43 107 121l5 -8q33 -164 33 -389v-732zM343 -261q0 -53 -24 -71q-114 -5 -250 -94v36l3 20q31 19 82 45q-67 31 -67 78q0 32 53 81.5t86 49.5q54 0 96 -47l-50 -48q-23 28 -55 28
q-52 0 -72 -45q26 -53 81 -63z" />
    <glyph glyph-name="yehwithhamzaabove" unicode="&#x626;" horiz-adv-x="1296" 
d="M1294 603q-13 -53 -52 -152q-11 0 -33 2.5t-33 2.5q-97 0 -190 -81q-79 -70 -126 -170q22 -40 186 -97q146 -51 146 -120q0 -91 -54 -203q-346 -180 -707 -180q-117 0 -207 82q-93 85 -93 201q0 90 52 211q48 112 113 189q36 -9 55 -32q-110 -192 -110 -288
q0 -217 330 -217q104 0 282 53q192 58 253 119q-11 8 -193 82q-145 60 -145 109q0 154 138 331q145 185 294 185q80 0 94 -27zM640 772q-4 -26 -24 -71q-117 -5 -250 -94v36l3 20q31 19 82 45q-67 31 -67 78q0 32 53 81.5t86 49.5q54 0 96 -47l-50 -48q-24 28 -55 28
q-52 0 -72 -45q26 -53 81 -63z" />
    <glyph glyph-name="arabicalef" unicode="&#x627;" horiz-adv-x="283" 
d="M276 101q0 -33 -72 -126q-10 17 -12 119q-2 73 -1 194q2 160 2 139q0 489 -62 682q33 43 107 121l5 -8q33 -164 33 -389v-732z" />
    <glyph glyph-name="beh" unicode="&#x628;" horiz-adv-x="1309" 
d="M1308 294q0 -137 -113 -200q-68 -37 -235 -64q-252 -40 -400 -40q-164 0 -275 47q-154 64 -154 204q0 72 29 155q31 88 77 136l43 -28q-56 -118 -56 -174q0 -199 399 -199q146 0 312 23q218 29 286 82q-1 31 -73 160q53 94 85 141q13 -13 44 -114t31 -129zM796 -259
l-102 -108l-116 100l108 112z" />
    <glyph glyph-name="tehmarbuta" unicode="&#x629;" horiz-adv-x="599" 
d="M598 244q0 -118 -88 -184q-79 -59 -198 -59q-78 0 -128 43q-53 45 -53 121q0 73 62 222l100 220q127 -55 207 -140q98 -103 98 -223zM511 196q0 80 -68 145q-36 35 -136 97q-80 -158 -80 -218q0 -36 40 -62q35 -24 73 -24t98 17q73 20 73 45zM518 909l-99 -101l-105 95
l103 103zM296 901l-99 -102l-105 95l102 103z" />
    <glyph glyph-name="teh" unicode="&#x62a;" horiz-adv-x="1309" 
d="M911 586l-96 -90l-95 96l96 90zM696 588l-96 -90l-95 96l96 89zM1308 294q0 -137 -113 -200q-68 -37 -235 -64q-252 -40 -400 -40q-164 0 -275 47q-154 64 -154 204q0 72 29 155q31 88 77 136l43 -28q-56 -118 -56 -174q0 -199 399 -199q146 0 312 23q218 29 286 82
q-1 31 -73 160q53 94 85 141q13 -13 44 -114t31 -129z" />
    <glyph glyph-name="theh" unicode="&#x62b;" horiz-adv-x="1309" 
d="M911 586l-96 -90l-95 96l96 90zM696 588l-96 -90l-95 96l96 89zM1308 294q0 -137 -113 -200q-68 -37 -235 -64q-252 -40 -400 -40q-164 0 -275 47q-154 64 -154 204q0 72 29 155q31 88 77 136l43 -28q-56 -118 -56 -174q0 -199 399 -199q146 0 312 23q218 29 286 82
q-1 31 -73 160q53 94 85 141q13 -13 44 -114t31 -129zM801 712l-97 -90l-95 95l97 90z" />
    <glyph glyph-name="jeem" unicode="&#x62c;" horiz-adv-x="947" 
d="M660 -520q-208 0 -350 77q-179 96 -179 286q0 195 150 338q103 98 324 201q-226 68 -288 68q-45 0 -97 -98l-51 12q98 238 153 238q46 0 212.5 -54.5t295.5 -54.5q51 0 102 7l9 -6q-16 -68 -57 -130q-199 0 -396 -128q-220 -143 -220 -330q0 -166 165 -245
q125 -60 311 -60q44 0 132 11t131 11l8 -4q-50 -96 -154 -124q-56 -15 -201 -15zM763 -45l-109 -115l-123 106l115 120z" />
    <glyph glyph-name="hah" unicode="&#x62d;" horiz-adv-x="947" 
d="M660 -520q-208 0 -350 77q-179 96 -179 286q0 195 150 338q103 98 324 201q-226 68 -288 68q-45 0 -97 -98l-51 12q98 238 153 238q46 0 212.5 -54.5t295.5 -54.5q51 0 102 7l9 -6q-16 -68 -57 -130q-199 0 -396 -128q-220 -143 -220 -330q0 -166 165 -245
q125 -60 311 -60q44 0 132 11t131 11l8 -4q-50 -96 -154 -124q-56 -15 -201 -15z" />
    <glyph glyph-name="khah" unicode="&#x62e;" horiz-adv-x="947" 
d="M687 933l-101 -108l-116 99l108 112zM660 -520q-208 0 -350 77q-179 96 -179 286q0 195 150 338q103 98 324 201q-226 68 -288 68q-45 0 -97 -98l-51 12q98 238 153 238q46 0 212.5 -54.5t295.5 -54.5q51 0 102 7l9 -6q-16 -68 -57 -130q-199 0 -396 -128
q-220 -143 -220 -330q0 -166 165 -245q125 -60 311 -60q44 0 132 11t131 11l8 -4q-50 -96 -154 -124q-56 -15 -201 -15z" />
    <glyph glyph-name="dal" unicode="&#x62f;" horiz-adv-x="640" 
d="M640 303q0 -138 -36.5 -189t-162.5 -83.5t-179 -32.5q-90 0 -127 22l-2 35q-5 80 17 168l21 7l19 -7q0 -53 22 -69q17 -13 69 -13q56 0 148 20q107 24 129 52q3 26 3 53q0 204 -301 363q7 53 12 79q12 58 28 72q129 -34 236 -190q104 -150 104 -287z" />
    <glyph glyph-name="thal" unicode="&#x630;" horiz-adv-x="640" 
d="M375 1127l-101 -107l-117 100l109 112zM640 303q0 -138 -36.5 -189t-162.5 -83.5t-179 -32.5q-90 0 -127 22l-2 35q-5 80 17 168l21 7l19 -7q0 -53 22 -69q17 -13 69 -13q56 0 148 20q107 24 129 52q3 26 3 53q0 204 -301 363q7 53 12 79q12 58 28 72q129 -34 236 -190
q104 -150 104 -287z" />
    <glyph glyph-name="reh" unicode="&#x631;" horiz-adv-x="574" 
d="M571 109q0 -130 -97 -330q-108 -225 -218 -225q-34 0 -96 16q-67 17 -89 34q234 160 260 181q161 134 161 249q0 78 -122 223q15 60 23 86q16 50 36 81q34 -14 89 -144q53 -124 53 -171z" />
    <glyph glyph-name="zain" unicode="&#x632;" horiz-adv-x="574" 
d="M545 737l-102 -107l-116 100l108 112zM571 109q0 -130 -97 -330q-108 -225 -218 -225q-34 0 -96 16q-67 17 -89 34q234 160 260 181q161 134 161 249q0 78 -122 223q15 60 23 86q16 50 36 81q34 -14 89 -144q53 -124 53 -171z" />
    <glyph glyph-name="seen" unicode="&#x633;" horiz-adv-x="1716" 
d="M1714 266q0 -87 -79 -175q-82 -90 -168 -90q-118 0 -151 117q-65 -117 -165 -117q-53 0 -86 25l3 -162q3 -171 -223 -281q-186 -91 -381 -91q-141 0 -232 68q-101 76 -101 212q0 86 44 202q40 105 95 186q34 -3 53 -32q-81 -195 -81 -279q0 -207 241 -207q116 0 273 49
q183 57 226 135l1 56q4 164 -101 326q24 80 63 174q26 -24 51 -93q28 -75 48 -101q36 -47 103 -47q111 0 144 204l31 8l33 -8q0 -92 16 -134q27 -68 104 -68q114 0 153 98q-13 31 -86 137q25 69 72 162q27 -16 65 -127q35 -104 35 -147z" />
    <glyph glyph-name="sheen" unicode="&#x634;" horiz-adv-x="1716" 
d="M1447 925l-98 -90l-95 96l97 90zM1554 746l-97 -91l-96 95l98 91zM1339 747l-97 -90l-95 95l97 90zM1714 266q0 -87 -79 -175q-82 -90 -168 -90q-118 0 -151 117q-65 -117 -165 -117q-53 0 -86 25l3 -162q3 -171 -223 -281q-186 -91 -381 -91q-141 0 -232 68
q-101 76 -101 212q0 86 44 202q40 105 95 186q34 -3 53 -32q-81 -195 -81 -279q0 -207 241 -207q116 0 273 49q183 57 226 135l1 56q4 164 -101 326q24 80 63 174q26 -24 51 -93q28 -75 48 -101q36 -47 103 -47q111 0 144 204l31 8l33 -8q0 -92 16 -134q27 -68 104 -68
q114 0 153 98q-13 31 -86 137q25 69 72 162q27 -16 65 -127q35 -104 35 -147z" />
    <glyph glyph-name="sad" unicode="&#x635;" horiz-adv-x="1920" 
d="M1917 276q0 -97 -209 -191q-185 -84 -302 -84h-264q-51 0 -77 25l3 -162q3 -174 -222 -281q-183 -88 -382 -88q-140 0 -231 67q-102 75 -102 210q0 82 45 201q43 116 96 184q26 -6 51 -26q-81 -191 -81 -282q0 -107 84 -162q72 -47 185 -47q121 0 252 51q135 52 218 134
q5 63 5 73q0 71 -30.5 162.5t-73.5 147.5q46 158 63 174q15 -15 67 -134q42 -96 99 -102q74 44 181.5 152t166.5 146q105 66 234 66q92 0 158 -70.5t66 -163.5zM1798 236q0 63 -58.5 111t-123.5 48q-147 0 -398 -257h229q75 0 197 25q154 32 154 73z" />
    <glyph glyph-name="dad" unicode="&#x636;" horiz-adv-x="1920" 
d="M1679 881l-101 -108l-116 99l108 113zM1917 276q0 -97 -209 -191q-185 -84 -302 -84h-264q-51 0 -77 25l3 -162q3 -174 -222 -281q-183 -88 -382 -88q-140 0 -231 67q-102 75 -102 210q0 82 45 201q43 116 96 184q26 -6 51 -26q-81 -191 -81 -282q0 -107 84 -162
q72 -47 185 -47q121 0 252 51q135 52 218 134q5 63 5 73q0 71 -30.5 162.5t-73.5 147.5q46 158 63 174q15 -15 67 -134q42 -96 99 -102q74 44 181.5 152t166.5 146q105 66 234 66q92 0 158 -70.5t66 -163.5zM1798 236q0 63 -58.5 111t-123.5 48q-147 0 -398 -257h229
q75 0 197 25q154 32 154 73z" />
    <glyph glyph-name="tah" unicode="&#x637;" horiz-adv-x="1130" 
d="M1128 276q-73 -153 -275 -226q-158 -57 -361 -57h-146q-60 0 -214 162q153 -15 201 -14h10v79q0 310 -7 434q-15 246 -66 428l98 119q38 -79 105 -241l-70 14q21 -164 30 -737q268 272 449 272q97 0 171.5 -68t74.5 -165zM1009 236q0 64 -60 113q-56 46 -121 46
q-148 0 -408 -257h238q76 0 198 25q153 32 153 73z" />
    <glyph glyph-name="zah" unicode="&#x638;" horiz-adv-x="1130" 
d="M878 868l-102 -108l-116 99l109 113zM1128 276q-73 -153 -275 -226q-158 -57 -361 -57h-146q-60 0 -214 162q153 -15 201 -14h10v79q0 310 -7 434q-15 246 -66 428l98 119q38 -79 105 -241l-70 14q21 -164 30 -737q268 272 449 272q97 0 171.5 -68t74.5 -165zM1009 236
q0 64 -60 113q-56 46 -121 46q-148 0 -408 -257h238q76 0 198 25q153 32 153 73z" />
    <glyph glyph-name="ain" unicode="&#x639;" horiz-adv-x="869" 
d="M846 -495q-110 -25 -257 -25q-178 0 -305 76q-153 91 -153 257q0 229 279 418q-67 32 -110 90q-47 63 -47 133q0 90 94.5 178t185.5 88q39 0 116 -44q82 -47 82 -80l-4 -3q-25 0 -74.5 7.5t-74.5 7.5q-129 0 -237 -83q-2 -58 62.5 -128.5t122.5 -70.5t168 47.5t167 47.5
l3 -5q-29 -85 -67 -142q-204 -39 -342 -120q-192 -112 -192 -279q0 -160 150 -224q106 -45 310 -45q40 0 108.5 2t91.5 2l3 -4q-22 -45 -80 -101z" />
    <glyph glyph-name="ghain" unicode="&#x63a;" horiz-adv-x="869" 
d="M587 1041l-101 -107l-116 99l108 112zM846 -495q-110 -25 -257 -25q-178 0 -305 76q-153 91 -153 257q0 229 279 418q-67 32 -110 90q-47 63 -47 133q0 90 94.5 178t185.5 88q39 0 116 -44q82 -47 82 -80l-4 -3q-25 0 -74.5 7.5t-74.5 7.5q-129 0 -237 -83
q-2 -58 62.5 -128.5t122.5 -70.5t168 47.5t167 47.5l3 -5q-29 -85 -67 -142q-204 -39 -342 -120q-192 -112 -192 -279q0 -160 150 -224q106 -45 310 -45q40 0 108.5 2t91.5 2l3 -4q-22 -45 -80 -101z" />
    <glyph glyph-name="tatweel" unicode="&#x640;" horiz-adv-x="369" 
d="M414 1h-440v139h440v-139z" />
    <glyph glyph-name="feh" unicode="&#x641;" horiz-adv-x="1343" 
d="M1198 1049l-100 -107l-117 100l108 111zM1341 382q0 -64 -14 -153q-17 -114 -44 -132q-159 -105 -696 -105q-456 0 -456 265q0 62 33 147t75 128l41 -27q-56 -116 -56 -174q0 -200 397 -200h196q268 0 420 82q27 46 24 97l-2 35q-87 -38 -169 -38q-87 0 -145 38
q-21 35 -21 119q0 87 46 192q54 125 128 125q118 0 187 -147q56 -119 56 -252zM1248 487q0 47 -59.5 96.5t-107.5 49.5q-33 0 -53 -51q-16 -41 -16 -81q0 -58 104 -58q88 0 132 44z" />
    <glyph glyph-name="qaf" unicode="&#x642;" horiz-adv-x="1120" 
d="M1074 748l-98 -102l-106 96l103 103zM853 739l-99 -101l-106 96l103 102zM1114 69q0 -249 -38 -307q-73 -111 -269 -199q-185 -83 -328 -83t-238 64q-111 74 -111 210q0 90 40 209.5t94 191.5q33 0 55 -35q-78 -174 -78 -270q0 -211 258 -211q123 0 290 69
q184 75 236 168q10 18 10 136l-4 21q-55 -39 -159 -39q-108 0 -155 40q-22 44 -22 141q0 76 51 178q58 116 125 116q117 0 187 -148q56 -120 56 -252zM1012 178q0 50 -53.5 96t-104.5 46q-36 0 -55 -51q-14 -37 -14 -80q0 -56 119 -56q81 0 108 45z" />
    <glyph glyph-name="arabickaf" unicode="&#x643;" horiz-adv-x="1521" 
d="M1494 895l-279 -85q-161 -51 -272 -105q172 -92 228 -137q122 -100 122 -222q0 -219 -190 -297q-120 -49 -379 -49h-163q-430 0 -430 257q0 67 31 150.5t75 133.5l44 -28q-57 -92 -57 -177q0 -132 186 -174q91 -21 291 -21q452 0 527 143q-31 110 -143 196q-4 3 -210 133
q0 113 21 183q350 186 679 248l6 -6q-27 -72 -87 -143zM724 484q-4 -26 -24 -71q-117 -5 -250 -94v36l3 20q31 19 82 45q-67 31 -67 78q0 32 53 81.5t86 49.5q54 0 96 -47l-50 -48q-24 28 -55 28q-52 0 -72 -45q26 -53 81 -63z" />
    <glyph glyph-name="lam" unicode="&#x644;" horiz-adv-x="1053" 
d="M1048 965l-62 14q22 -570 22 -834q0 -326 -96 -460q-116 -161 -430 -161q-145 0 -238 57q-113 69 -113 205q0 71 25 158q27 92 66 144l48 -24q-45 -138 -45 -206q0 -88 85 -141q74 -46 167 -46q95 0 254 45q191 54 191 117q0 813 -74 1259q33 48 99 121q38 -83 101 -248z
" />
    <glyph glyph-name="meem" unicode="&#x645;" horiz-adv-x="759" 
d="M758 320q0 -78 -56 -175l-267 -29q-208 -32 -208 -82q0 -72 12.5 -216.5t12.5 -216.5q0 -24 -35 -65q-30 -35 -56 -51q-1 46 2 127q4 92 4 128q0 168 -36 258q12 48 39 143q32 27 142 82q-34 92 -34 160q0 61 43 114q46 57 105 57q94 0 207 -70q125 -77 125 -164z
M658 265q-80 149 -256 149q-34 0 -34 -40q0 -96 18 -129z" />
    <glyph glyph-name="noon" unicode="&#x646;" horiz-adv-x="1078" 
d="M765 546l-101 -107l-117 100l109 112zM464 -508q-145 0 -234 66q-99 74 -99 214q0 84 46 204.5t102 182.5l49 -36q-86 -158 -86 -285q0 -101 88 -153q72 -42 181 -42q142 0 291 51q194 67 194 178q0 127 -84 318q32 82 78 174q46 -48 69 -216q17 -120 17 -235
q0 -218 -207 -331q-167 -90 -405 -90z" />
    <glyph glyph-name="heh" unicode="&#x647;" horiz-adv-x="599" 
d="M598 244q0 -118 -88 -184q-79 -59 -198 -59q-78 0 -128 43q-53 45 -53 121q0 73 62 222l100 220q127 -55 207 -140q98 -103 98 -223zM511 196q0 80 -68 145q-36 35 -136 97q-80 -158 -80 -218q0 -36 40 -62q35 -24 73 -24t98 17q73 20 73 45z" />
    <glyph glyph-name="waw" unicode="&#x648;" horiz-adv-x="634" 
d="M633 63q0 -130 -111 -340q-122 -231 -233 -231q-42 0 -102 23t-94 51q237 135 284 173q147 116 172 273q-65 -10 -169 -10t-136 45q-25 35 -25 143q0 79 61 181q67 112 140 112q114 0 171 -161q42 -117 42 -259zM539 165q0 57 -43 113q-46 60 -101 60q-36 0 -59 -55
q-19 -44 -19 -86q0 -58 95 -58q82 0 127 26z" />
    <glyph glyph-name="alefmaksura" unicode="&#x649;" horiz-adv-x="1296" 
d="M1294 603q-13 -53 -52 -152q-11 0 -33 2.5t-33 2.5q-97 0 -190 -81q-79 -70 -126 -170q22 -40 186 -97q146 -51 146 -120q0 -91 -54 -203q-346 -180 -707 -180q-117 0 -207 82q-93 85 -93 201q0 90 52 211q48 112 113 189q36 -9 55 -32q-110 -192 -110 -288
q0 -217 330 -217q104 0 282 53q192 58 253 119q-11 8 -193 82q-145 60 -145 109q0 154 138 331q145 185 294 185q80 0 94 -27z" />
    <glyph glyph-name="yeh" unicode="&#x64a;" horiz-adv-x="1296" 
d="M1294 603q-13 -53 -52 -152q-11 0 -33 2.5t-33 2.5q-97 0 -190 -81q-79 -70 -126 -170q22 -40 186 -97q146 -51 146 -120q0 -91 -54 -203q-346 -180 -707 -180q-117 0 -207 82q-93 85 -93 201q0 90 52 211q48 112 113 189q36 -9 55 -32q-110 -192 -110 -288
q0 -217 330 -217q104 0 282 53q192 58 253 119q-11 8 -193 82q-145 60 -145 109q0 154 138 331q145 185 294 185q80 0 94 -27zM748 -664l-97 -90l-95 96l97 89zM533 -662l-97 -90l-95 95l97 90z" />
    <glyph glyph-name="fathatan" unicode="&#x64b;" horiz-adv-x="583" 
d="M545 1948q-34 -11 -212 -94q-156 -73 -201 -73h-100q8 4 212 97q153 70 200 70h101zM583 1837q-34 -11 -212 -94q-156 -73 -201 -73h-100q8 4 212 97q153 70 200 70h101z" />
    <glyph glyph-name="dammatan" unicode="&#x64c;" horiz-adv-x="576" 
d="M576 1857q0 -45 -74 -78l58 -52h-44q-33 0 -69 25q-147 -82 -213 -82v83q-46 -20 -98 -20h-66q48 20 180 86l54 29v-96q32 12 90 40l-28 25q-36 32 -36 66q0 37 38 67l120 95q0 -25 44 -94t44 -94zM507 1867q0 56 -56 56q-51 0 -51 -41q0 -15 54 -59q53 31 53 44z" />
    <glyph glyph-name="kasratan" unicode="&#x64d;" horiz-adv-x="583" 
d="M545 -585q-34 -11 -212 -94q-156 -73 -201 -73h-100q8 4 212 97q153 70 200 70h101zM583 -696q-34 -11 -212 -94q-156 -73 -201 -73h-100q8 4 212 97q153 70 200 70h101z" />
    <glyph glyph-name="fatha" unicode="&#x64e;" horiz-adv-x="583" 
d="M583 1837q-34 -11 -212 -94q-156 -73 -201 -73h-100q8 4 212 97q153 70 200 70h101z" />
    <glyph glyph-name="damma" unicode="&#x64f;" horiz-adv-x="511" 
d="M511 1857q0 -45 -74 -78l58 -52h-44q-33 0 -70 26q-11 -4 -99 -49q-67 -34 -120 -34h-92q108 41 257 123l-26 24q-36 33 -36 66q0 37 38 67l120 95q0 -25 44 -94t44 -94zM442 1867q0 56 -56 56q-51 0 -51 -41q0 -15 54 -59q53 31 53 44z" />
    <glyph glyph-name="kasra" unicode="&#x650;" horiz-adv-x="583" 
d="M583 -585q-34 -11 -212 -94q-156 -73 -201 -73h-100q8 4 212 97q153 70 200 70h101z" />
    <glyph glyph-name="shadda" unicode="&#x651;" horiz-adv-x="551" 
d="M551 1816q-47 -11 -183 -81q-126 -65 -148 -65q-42 0 -94 77q-21 31 -56 72h59q27 0 61.5 -32t44.5 -32q48 0 48 39q0 67 -64 105h61q29 0 49 -31q36 -54 48 -54q45 0 45 48q0 52 -52 80l51 4q43 3 72 -47q38 -68 58 -83z" />
    <glyph glyph-name="sukun" unicode="&#x652;" horiz-adv-x="326" 
d="M326 1787q0 -50 -38.5 -83.5t-89.5 -33.5q-48 0 -86 29q-42 31 -42 78q0 50 64 116l84 86q0 -40 54 -99t54 -93zM260 1779q0 25 -66 94l-38 -42q-20 -22 -20 -44q0 -56 60 -56q21 0 42.5 14t21.5 34z" />
    <glyph glyph-name="arabicindicdigitzero" unicode="&#x660;" 
d="M599 456q-110 -106 -168 -207q-123 118 -212 162q86 66 165 197q73 -73 215 -152z" />
    <glyph glyph-name="arabicindicdigitone" unicode="&#x661;" 
d="M608 89q-9 -21 -100 -136q-5 299 -67 517q-71 246 -233 464q43 70 84 156q144 -200 230 -478q86 -273 86 -523z" />
    <glyph glyph-name="arabicindicdigittwo" unicode="&#x662;" 
d="M747 1036q0 -126 -77 -212q-80 -90 -204 -90q-82 0 -136 22q148 -318 148 -668q-18 -32 -107 -145q0 647 -301 986q57 106 85 167q89 -119 132 -154q77 -62 190 -62q80 0 134 76q28 38 72 147z" />
    <glyph glyph-name="arabicindicdigitthree" unicode="&#x663;" 
d="M791 1081q4 -38 4 -83q0 -91 -34 -158q-43 -85 -125 -85q-47 0 -76 25q-19 16 -50 66q-47 -112 -162 -112q-32 0 -64 11q139 -276 139 -655q-14 -29 -97 -140q0 541 -299 982l86 155q77 -115 90 -129q60 -67 134 -67q129 0 129 192h65l-1 -22q-2 -61 26 -106
q32 -52 91 -52q73 0 73 209z" />
    <glyph glyph-name="arabicindicdigitfour" unicode="&#x664;" 
d="M786 868q-30 -137 -100 -175q-51 -28 -205 -28q-71 0 -160 35q119 -306 119 -502v-128q-54 -83 -101 -124q0 572 -307 964q34 80 89 171l120 -144q79 -86 144 -110q-26 68 -26 117q0 74 64 126q60 49 136 49t135 -49q13 -32 20 -101q-114 36 -151 36q-40 0 -75 -20
q-40 -24 -40 -62q0 -118 178 -118q55 0 160 63z" />
    <glyph glyph-name="arabicindicdigitfive" unicode="&#x665;" 
d="M755 270q0 -101 -47 -180q-55 -93 -149 -93q-58 0 -93 40q-21 24 -50 91q-76 -128 -173 -128q-82 0 -131 78q-43 67 -43 154q0 133 89 323q44 95 164 300l-65 54l77 165q194 -139 306 -352q115 -217 115 -452zM658 290q0 243 -265 508q-218 -344 -218 -541
q0 -40 28 -72.5t67 -32.5q115 0 115 167h65q19 -169 109 -169q99 0 99 140z" />
    <glyph glyph-name="arabicindicdigitsix" unicode="&#x666;" 
d="M808 768q-11 -41 -93 -176q-233 -78 -407 -252q-100 -100 -297 -378v162q0 45 148 220q131 157 198 214q-81 9 -160 63q-91 62 -91 135q0 131 105 243.5t235 112.5q114 0 181 -57q27 -64 39 -133q-180 51 -246 51q-48 0 -122 -41q-82 -45 -82 -87q0 -73 112 -117
q88 -35 176 -35q63 0 304 75z" />
    <glyph glyph-name="arabicindicdigitseven" unicode="&#x667;" 
d="M802 875q-147 -134 -247 -405q-94 -253 -94 -470h-91q0 233 -94 479q-98 257 -257 413l65 198q118 -79 220 -361q82 -227 107 -427q37 229 118 429q101 250 239 367q16 -76 34 -223z" />
    <glyph glyph-name="arabicindicdigiteight" unicode="&#x668;" 
d="M801 207q-7 -77 -35 -223q-256 231 -356 797q0 -164 -102 -427q-109 -282 -226 -361l-64 198q160 157 257 413q92 243 94 479h90q0 -222 93 -470q98 -259 249 -406z" />
    <glyph glyph-name="arabicindicdigitnine" unicode="&#x669;" 
d="M750 171q-3 -41 -43 -191q-127 71 -175 176q-30 67 -42 210q-14 160 -39 240q-67 -54 -186 -54q-58 0 -119 37.5t-91 89.5q0 138 43 254q58 157 170 157q192 0 241 -193l46 -397q38 -246 195 -329zM433 748q0 71 -55 124.5t-127 53.5q-98 0 -98 -135q0 -36 50 -56
q39 -16 82 -16q106 0 148 29z" />
    <glyph glyph-name="arabicpercentsign" unicode="&#x66a;" horiz-adv-x="946" 
d="M319 1275q0 -46 -33 -81.5t-79 -35.5q-47 0 -82 35t-35 82q0 48 34.5 81.5t82.5 33.5q46 0 79 -34.5t33 -80.5zM770 1418l-510 -1325h-78l506 1325h82zM859 246q0 -46 -33 -81.5t-79 -35.5q-47 0 -82 35t-35 82q0 48 34.5 81.5t82.5 33.5q46 0 79 -34.5t33 -80.5z" />
    <glyph glyph-name="arabicfivepointedstar" unicode="&#x66d;" horiz-adv-x="815" 
d="M765 1190l-218 -161l82 -259l-221 158l-221 -158l82 259l-218 161h271l86 260l86 -260h271z" />
    <glyph glyph-name="superscriptalef" unicode="&#x670;" horiz-adv-x="239" 
d="M294 1084q-10 -13 -77 -13t-95 14q-39 20 -39 79v305q0 30 -61 129q41 0 116 86v-466q0 -87 100 -119q16 -4 56 -15z" />
    <glyph glyph-name="alefwasla" unicode="&#x671;" horiz-adv-x="500" 
 />
    <glyph glyph-name="highhamza" unicode="&#x674;" horiz-adv-x="368" 
d="M298 1638q-18 -10 -53 -40l-26 -32q-12 -15 -12 -20q0 -11 13 -23l46 -44q20 -19 20 -43q0 -25 -15 -40l-72 -70q-32 -31 -88 -31q-25 0 -41 8q26 5 48 31l26 30q19 22 19 34q0 8 -18 26l-37 37q-25 25 -25 47q0 24 26 49l61 58q27 26 89 26q17 0 39 -3z" />
    <glyph glyph-name="peh" unicode="&#x67e;" horiz-adv-x="1309" 
d="M1308 294q0 -137 -113 -200q-68 -37 -235 -64q-252 -40 -400 -40q-164 0 -275 47q-154 64 -154 204q0 72 29 155q31 88 77 136l43 -28q-56 -118 -56 -174q0 -199 399 -199q146 0 312 23q218 29 286 82q-1 31 -73 160q53 94 85 141q13 -13 44 -114t31 -129zM896 -228
l-97 -90l-95 96l97 90zM681 -226l-97 -91l-95 96l97 90zM788 -407l-96 -89l-96 95l98 90z" />
    <glyph glyph-name="tcheh" unicode="&#x686;" horiz-adv-x="947" 
d="M792 -5l-97 -89l-95 95l96 90zM660 -520q-208 0 -350 77q-179 96 -179 286q0 195 150 338q103 98 324 201q-226 68 -288 68q-45 0 -97 -98l-51 12q98 238 153 238q46 0 212.5 -54.5t295.5 -54.5q51 0 102 7l9 -6q-16 -68 -57 -130q-199 0 -396 -128q-220 -143 -220 -330
q0 -166 165 -245q125 -60 311 -60q44 0 132 11t131 11l8 -4q-50 -96 -154 -124q-56 -15 -201 -15zM577 -3l-97 -90l-96 96l98 90zM684 -182l-97 -91l-95 95l97 90z" />
    <glyph glyph-name="jeh" unicode="&#x698;" horiz-adv-x="620" 
d="M523 904l-97 -90l-95 95l97 90zM631 723l-98 -90l-95 96l97 90zM416 725l-97 -90l-96 96l97 90zM571 109q0 -130 -97 -330q-108 -225 -218 -225q-34 0 -96 16q-67 17 -89 34q234 160 260 181q161 134 161 249q0 78 -122 223q15 60 23 86q16 50 36 81q34 -14 89 -144
q53 -124 53 -171z" />
    <glyph glyph-name="veh" unicode="&#x6a4;" horiz-adv-x="1343" 
d="M1341 382q0 -64 -14 -153q-17 -114 -44 -132q-159 -105 -696 -105q-456 0 -456 265q0 62 33 147t75 128l41 -27q-56 -116 -56 -174q0 -200 397 -200h196q268 0 420 82q27 46 24 97l-2 35q-87 -38 -169 -38q-87 0 -145 38q-21 35 -21 119q0 87 46 192q54 125 128 125
q118 0 187 -147q56 -119 56 -252zM1248 487q0 47 -59.5 96.5t-107.5 49.5q-33 0 -53 -51q-16 -41 -16 -81q0 -58 104 -58q88 0 132 44zM1180 1105l-97 -90l-95 95l97 90zM1288 972l-98 -90l-95 96l97 90zM1073 974l-97 -90l-96 96l97 90z" />
    <glyph glyph-name="keheh" unicode="&#x6a9;" horiz-adv-x="1521" 
d="M1494 895l-279 -85q-161 -51 -272 -105q172 -92 228 -137q122 -100 122 -222q0 -219 -190 -297q-120 -49 -379 -49h-163q-430 0 -430 257q0 67 31 150.5t75 133.5l44 -28q-57 -92 -57 -177q0 -132 186 -174q91 -21 291 -21q452 0 527 143q-31 110 -143 196q-4 3 -210 133
q0 113 21 183q350 186 679 248l6 -6q-27 -72 -87 -143z" />
    <glyph glyph-name="gaf" unicode="&#x6af;" horiz-adv-x="1521" 
d="M1494 895l-279 -85q-161 -51 -272 -105q172 -92 228 -137q122 -100 122 -222q0 -219 -190 -297q-120 -49 -379 -49h-163q-430 0 -430 257q0 67 31 150.5t75 133.5l44 -28q-57 -92 -57 -177q0 -132 186 -174q91 -21 291 -21q452 0 527 143q-31 110 -143 196q-4 3 -210 133
q0 113 21 183q350 186 679 248l6 -6q-27 -72 -87 -143zM1521 1199l-47 -88q-142 -43 -549 -206l18 86q192 82 284 117q161 61 294 91z" />
    <glyph glyph-name="farsiyeh" unicode="&#x6cc;" horiz-adv-x="1165" 
d="M1191 1q-166 0 -181 -1q-109 -11 -164 -65l143 -51q111 -42 111 -66q0 -158 -47 -204t-272 -89q-198 -38 -303 -38q-134 0 -230 58q-114 69 -114 195q0 107 37 219q40 123 106 193q40 -12 55 -31q-97 -167 -97 -274q0 -217 323 -217q259 0 463 84l8 12l-5 11l-135 49
q-78 31 -127 66q0 136 73.5 212t208.5 76h147v-139z" />
    <glyph glyph-name="arabicae" unicode="&#x6d5;" horiz-adv-x="599" 
d="M598 244q0 -118 -88 -184q-79 -59 -198 -59q-78 0 -128 43q-53 45 -53 121q0 73 62 222l100 220q127 -55 207 -140q98 -103 98 -223zM511 196q0 80 -68 145q-36 35 -136 97q-80 -158 -80 -218q0 -36 40 -62q35 -24 73 -24t98 17q73 20 73 45z" />
    <glyph glyph-name="smallhighmadda" unicode="&#x6e4;" horiz-adv-x="530" 
d="M485 1399q0 -104 -125 -104h-149q-57 0 -90 -58l-76 -108v156q0 104 125 104h145q62 0 94 58l76 108v-156z" />
    <glyph glyph-name="extendedarabicindicdigitzero" unicode="&#x6f0;" 
d="M599 456q-110 -106 -168 -207q-123 118 -212 162q86 66 165 197q73 -73 215 -152z" />
    <glyph glyph-name="extendedarabicindicdigitone" unicode="&#x6f1;" 
d="M608 89q-9 -21 -100 -136q-5 299 -67 517q-71 246 -233 464q43 70 84 156q144 -200 230 -478q86 -273 86 -523z" />
    <glyph glyph-name="extendedarabicindicdigittwo" unicode="&#x6f2;" 
d="M747 1036q0 -126 -77 -212q-80 -90 -204 -90q-82 0 -136 22q148 -318 148 -668q-18 -32 -107 -145q0 647 -301 986q57 106 85 167q89 -119 132 -154q77 -62 190 -62q80 0 134 76q28 38 72 147z" />
    <glyph glyph-name="extendedarabicindicdigitthree" unicode="&#x6f3;" 
d="M791 1081q4 -38 4 -83q0 -91 -34 -158q-43 -85 -125 -85q-47 0 -76 25q-19 16 -50 66q-47 -112 -162 -112q-32 0 -64 11q139 -276 139 -655q-14 -29 -97 -140q0 541 -299 982l86 155q77 -115 90 -129q60 -67 134 -67q129 0 129 192h65l-1 -22q-2 -61 26 -106
q32 -52 91 -52q73 0 73 209z" />
    <glyph glyph-name="extendedarabicindicdigitfour" unicode="&#x6f4;" 
d="M786 868q-30 -137 -100 -175q-51 -28 -205 -28q-71 0 -160 35q119 -306 119 -502v-128q-54 -83 -101 -124q0 572 -307 964q34 80 89 171l120 -144q79 -86 144 -110q-26 68 -26 117q0 74 64 126q60 49 136 49t135 -49q13 -32 20 -101q-114 36 -151 36q-40 0 -75 -20
q-40 -24 -40 -62q0 -118 178 -118q55 0 160 63z" />
    <glyph glyph-name="extendedarabicindicdigitfive" unicode="&#x6f5;" 
d="M755 270q0 -101 -47 -180q-55 -93 -149 -93q-58 0 -93 40q-21 24 -50 91q-76 -128 -173 -128q-82 0 -131 78q-43 67 -43 154q0 133 89 323q44 95 164 300l-65 54l77 165q194 -139 306 -352q115 -217 115 -452zM658 290q0 243 -265 508q-218 -344 -218 -541
q0 -40 28 -72.5t67 -32.5q115 0 115 167h65q19 -169 109 -169q99 0 99 140z" />
    <glyph glyph-name="extendedarabicindicdigitsix" unicode="&#x6f6;" 
d="M808 768q-11 -41 -93 -176q-233 -78 -407 -252q-100 -100 -297 -378v162q0 45 148 220q131 157 198 214q-81 9 -160 63q-91 62 -91 135q0 131 105 243.5t235 112.5q114 0 181 -57q27 -64 39 -133q-180 51 -246 51q-48 0 -122 -41q-82 -45 -82 -87q0 -73 112 -117
q88 -35 176 -35q63 0 304 75z" />
    <glyph glyph-name="extendedarabicindicdigitseven" unicode="&#x6f7;" 
d="M802 875q-147 -134 -247 -405q-94 -253 -94 -470h-91q0 233 -94 479q-98 257 -257 413l65 198q118 -79 220 -361q82 -227 107 -427q37 229 118 429q101 250 239 367q16 -76 34 -223z" />
    <glyph glyph-name="extendedarabicindicdigiteight" unicode="&#x6f8;" 
d="M801 207q-7 -77 -35 -223q-256 231 -356 797q0 -164 -102 -427q-109 -282 -226 -361l-64 198q160 157 257 413q92 243 94 479h90q0 -222 93 -470q98 -259 249 -406z" />
    <glyph glyph-name="extendedarabicindicdigitnine" unicode="&#x6f9;" 
d="M750 171q-3 -41 -43 -191q-127 71 -175 176q-30 67 -42 210q-14 160 -39 240q-67 -54 -186 -54q-58 0 -119 37.5t-91 89.5q0 138 43 254q58 157 170 157q192 0 241 -193l46 -397q38 -246 195 -329zM433 748q0 71 -55 124.5t-127 53.5q-98 0 -98 -135q0 -36 50 -56
q39 -16 82 -16q106 0 148 29z" />
    <glyph glyph-name="uni2000" unicode="&#x2000;" horiz-adv-x="1131" 
 />
    <glyph glyph-name="uni2001" unicode="&#x2001;" horiz-adv-x="2263" 
 />
    <glyph glyph-name="uni2002" unicode="&#x2002;" horiz-adv-x="1131" 
 />
    <glyph glyph-name="uni2003" unicode="&#x2003;" horiz-adv-x="2263" 
 />
    <glyph glyph-name="uni2004" unicode="&#x2004;" horiz-adv-x="754" 
 />
    <glyph glyph-name="uni2005" unicode="&#x2005;" horiz-adv-x="565" 
 />
    <glyph glyph-name="uni2006" unicode="&#x2006;" horiz-adv-x="377" 
 />
    <glyph glyph-name="uni2007" unicode="&#x2007;" horiz-adv-x="377" 
 />
    <glyph glyph-name="uni2008" unicode="&#x2008;" horiz-adv-x="282" 
 />
    <glyph glyph-name="uni2009" unicode="&#x2009;" horiz-adv-x="452" 
 />
    <glyph glyph-name="uni200A" unicode="&#x200a;" horiz-adv-x="125" 
 />
    <glyph glyph-name="zeronojoin" unicode="&#x200c;" horiz-adv-x="45" 
d="M45 0h-45v1628h45v-1628z" />
    <glyph glyph-name="zerojoin" unicode="&#x200d;" horiz-adv-x="45" 
d="M160 1496l-30 -30l-85 85v-1551h-45v1550l-84 -84l-30 30l107 107l-107 107l30 30l107 -107l107 107l30 -30l-107 -107z" />
    <glyph glyph-name="lefttoright" unicode="&#x200e;" horiz-adv-x="45" 
d="M303 1604l-137 -138l-31 31l86 86h-176v-1583h-45v1628h217l-82 82l31 31z" />
    <glyph glyph-name="righttoleft" unicode="&#x200f;" horiz-adv-x="45" 
d="M45 0h-45v1583h-176l86 -86l-31 -31l-137 138l137 137l31 -31l-82 -82h217v-1628z" />
    <glyph glyph-name="uni2010" unicode="&#x2010;" horiz-adv-x="946" 
d="M835 452h-730v83h730v-83z" />
    <glyph glyph-name="uni2011" unicode="&#x2011;" horiz-adv-x="946" 
d="M835 452h-730v83h730v-83z" />
    <glyph glyph-name="figuredash" unicode="&#x2012;" horiz-adv-x="946" 
d="M835 452h-730v83h730v-83z" />
    <glyph glyph-name="endash" unicode="&#x2013;" horiz-adv-x="1024" 
d="M1036 618h-1048v61h1048v-61z" />
    <glyph glyph-name="quotedash" unicode="&#x2014;" horiz-adv-x="2048" 
d="M2060 618h-2072v61h2072v-61z" />
    <glyph glyph-name="quoteleft" unicode="&#x2018;" horiz-adv-x="491" 
d="M467 1486q-89 -59 -154 -145q-76 -101 -76 -193q0 -55 32 -98q39 47 90 47q102 0 102 -100q0 -59 -48 -92q-43 -30 -104 -30q-82 0 -133 50.5t-51 132.5q0 141 108 283q97 127 234 200v-55z" />
    <glyph glyph-name="quoteright" unicode="&#x2019;" horiz-adv-x="491" 
d="M444 1353q0 -143 -107 -281q-91 -118 -232 -200v56q228 162 228 338q0 62 -33 101q-33 -49 -95 -49q-41 0 -69.5 28t-28.5 69q0 58 49 93q43 31 104 31q86 0 135 -50t49 -136z" />
    <glyph glyph-name="quotesinglbase" unicode="&#x201a;" horiz-adv-x="491" 
d="M458 164q0 -141 -108 -280q-92 -119 -231 -200v56q228 162 228 337q0 61 -33 100q-32 -48 -95 -48q-41 0 -69.5 28t-28.5 69q0 58 49 93q44 32 104 32q86 0 135 -50.5t49 -136.5z" />
    <glyph glyph-name="quotedblleft" unicode="&#x201c;" horiz-adv-x="650" 
d="M572 1146q-13 -6 -41 -26q-52 -51 -52 -95q82 -22 82 -112q0 -45 -31.5 -78t-76.5 -33q-52 0 -84 42q-29 38 -29 92q0 201 203 359q0 -84 1 -93q4 -40 28 -56zM302 1146q-13 -6 -41 -26q-52 -51 -52 -95q82 -22 82 -112q0 -45 -31.5 -78t-76.5 -33q-52 0 -84 42
q-29 38 -29 92q0 201 203 359q0 -84 1 -93q4 -40 28 -56z" />
    <glyph glyph-name="quotedblright" unicode="&#x201d;" horiz-adv-x="650" 
d="M580 1151q0 -201 -203 -359q0 84 -1 93q-4 40 -28 56q13 6 41 26q52 51 52 95q-82 22 -82 112q0 46 31 78.5t77 32.5q53 0 85 -41q28 -38 28 -93zM310 1151q0 -201 -203 -359q0 84 -1 93q-4 40 -28 56q13 6 41 26q52 51 52 95q-82 22 -82 112q0 46 31 78.5t77 32.5
q53 0 85 -41q28 -38 28 -93z" />
    <glyph glyph-name="quotedblbase" unicode="&#x201e;" horiz-adv-x="939" 
d="M864 163q0 -144 -105 -281q-89 -115 -231 -200v56q226 160 226 343q0 50 -31 96q-34 -48 -91 -48q-42 0 -71.5 28.5t-29.5 70.5q0 60 48 93q42 29 104 29q181 0 181 -187zM414 167q0 -280 -336 -485v58q91 55 154 142q71 97 71 193q0 54 -29 102q-34 -48 -92 -48
q-44 0 -72.5 28t-28.5 72q0 59 49 92q42 29 104 29q82 0 131 -50.5t49 -132.5z" />
    <glyph glyph-name="dagger" unicode="&#x2020;" horiz-adv-x="896" 
d="M808 844h-45q-5 63 -118 94l-171 47q20 -162 95 -334q-79 -313 -95 -978h-53q-18 626 -95 978q72 164 95 334l-134 -36q-73 -20 -98 -32q-55 -27 -60 -73h-42v338h42q8 -69 149 -105l143 -36l-34 192q-20 111 -28 134q-28 78 -93 82v45h360v-45q-62 0 -91 -77
q-10 -27 -27 -128l-34 -203l121 30q161 40 168 111h45v-338z" />
    <glyph glyph-name="daggerdbl" unicode="&#x2021;" horiz-adv-x="896" 
d="M817 -21h-49q-6 51 -100 90l-190 54l49 -251q16 -82 26 -102q24 -49 82 -50v-46h-369v46q55 1 81 51q14 27 27 101l46 257l-196 -62q-85 -27 -90 -88h-51v346h51q7 -46 54 -72q18 -10 89 -32l143 -44q-20 150 -98 410q47 137 98 399l-170 -48q-119 -34 -123 -94h-44v341
h44q10 -43 41 -64q9 -5 74 -31l178 -49l-55 281q-12 62 -26 85q-23 38 -73 41v45h363v-45q-64 -2 -91 -71q-8 -21 -28 -125l-40 -211l105 27q91 23 115 34q68 30 71 83h56v-341h-56q-5 33 -27 53q-17 16 -99 41l-157 48q46 -250 97 -399q-64 -209 -97 -410l157 50l13 6
l36 12q77 26 84 80h49v-346z" />
    <glyph glyph-name="bullet" unicode="&#x2022;" horiz-adv-x="576" 
d="M517 768q0 -96 -66.5 -162.5t-162.5 -66.5t-162.5 66.5t-66.5 162.5q0 97 66 163.5t163 66.5q98 0 163.5 -66t65.5 -164z" />
    <glyph glyph-name="ellipsis" unicode="&#x2026;" horiz-adv-x="2048" 
d="M1827 219q0 -49 -35.5 -84t-84.5 -35q-50 0 -85.5 34.5t-35.5 84.5q0 48 35 83t83 35q52 0 87.5 -33.5t35.5 -84.5zM1144 219q0 -49 -35.5 -84t-84.5 -35q-50 0 -85 34.5t-35 84.5q0 49 34.5 83.5t83.5 34.5q50 0 86 -34t36 -84zM462 219q0 -50 -35.5 -84.5t-85.5 -34.5
q-49 0 -84.5 35t-35.5 84q0 48 35 83t83 35q52 0 87.5 -33.5t35.5 -84.5z" />
    <glyph glyph-name="uni202F" unicode="&#x202f;" horiz-adv-x="452" 
 />
    <glyph glyph-name="perthousand" unicode="&#x2030;" horiz-adv-x="2069" 
d="M1990 494q0 -150 -90 -263q-97 -122 -243 -122q-124 0 -200 88q-73 85 -73 210q0 153 89 268q97 124 246 124q125 0 200 -92q71 -86 71 -213zM1314 494q0 -152 -89 -264q-96 -121 -244 -121q-123 0 -199 89q-73 84 -73 209q0 152 89 267q97 125 245 125q125 0 200 -92
q71 -86 71 -213zM686 1118q0 -150 -93 -263q-98 -119 -245 -119q-123 0 -198 90q-69 84 -69 210q0 147 91 263q98 125 242 125q127 0 202 -91q70 -86 70 -215zM1183 1464l-887 -1396h-86l888 1396h85zM1873 394q0 116 -50 216q-61 123 -166 123q-80 0 -120 -68
q-33 -56 -33 -141q0 -115 48 -217q61 -129 162 -129q159 0 159 216zM1198 394q0 116 -50 216q-61 123 -166 123q-79 0 -120 -68q-34 -56 -34 -141q0 -116 48 -218q60 -128 163 -128q159 0 159 216zM567 1026q0 112 -50 211q-61 121 -163 121q-155 0 -155 -215
q0 -119 49 -218q62 -125 168 -125q151 0 151 226z" />
    <glyph glyph-name="guilsinglleft" unicode="&#x2039;" horiz-adv-x="512" 
d="M457 966l-228 -382l222 -380v-75l-383 455l389 457v-75z" />
    <glyph glyph-name="guilsinglright" unicode="&#x203a;" horiz-adv-x="512" 
d="M457 586l-393 -457v75l231 382l-222 381v77z" />
    <glyph glyph-name="uni205F" unicode="&#x205f;" horiz-adv-x="565" 
 />
    <glyph glyph-name="trademark" unicode="&#x2122;" horiz-adv-x="1856" 
d="M1833 598h-345v33q80 0 101 31q17 25 17 110v515l-310 -689h-18l-322 676v-508q0 -90 15 -110q19 -25 103 -25v-33h-287v33q82 0 101 30q13 20 13 111v460q0 84 -16 107q-21 30 -98 36v33h237l295 -636l287 636h227v-33q-75 -4 -94.5 -27.5t-19.5 -101.5v-474
q0 -84 16 -108q21 -31 98 -33v-33zM716 1218h-26q-8 83 -41 111.5t-117 28.5h-92v-566q0 -96 13 -121q22 -41 104 -40v-33h-357v33q82 -1 104 40q13 25 13 121v566h-92q-80 0 -114 -30.5t-44 -109.5h-26v190h675v-190z" />
    <glyph glyph-name="delete" unicode="&#x2421;" horiz-adv-x="1600" 
d="M1520 129h-366v586h78v-517h288v-69zM1080 129h-438v586h424v-69h-346v-179h324v-69h-324v-200h360v-69zM572 425q0 -242 -179 -286q-41 -10 -95 -10h-211v586h202q69 0 104 -8q112 -26 156 -142q23 -61 23 -140zM492 427q0 167 -104 207q-31 12 -100 12h-124v-448h126
q102 0 143 41q59 59 59 188z" />
    <glyph glyph-name="uniE000" unicode="&#xe000;" horiz-adv-x="1045" 
d="M0 1045h1045v-1045h-1045v1045z" />
    <glyph glyph-name="shaddawithfathatanisolated" unicode="&#xe818;" horiz-adv-x="621" 
d="M545 2172q-34 -11 -212 -94q-156 -73 -201 -73h-100q8 4 212 97q153 70 200 70h101zM583 2061q-34 -11 -212 -94q-156 -73 -201 -73h-100q8 4 212 97q153 70 200 70h101zM621 1816q-47 -11 -183 -81q-126 -65 -148 -65q-42 0 -94 77q-21 31 -56 72h59q27 0 61.5 -32
t44.5 -32q48 0 48 39q0 67 -64 105h61q29 0 49 -31q36 -54 48 -54q45 0 45 48q0 52 -52 80l51 4q43 3 72 -47q38 -68 58 -83z" />
    <glyph glyph-name="fathalow" unicode="&#xe820;" horiz-adv-x="583" 
d="M583 1462q-34 -11 -212 -94q-156 -73 -201 -73h-100q8 4 212 97q153 70 200 70h101z" />
    <glyph glyph-name="dammalow" unicode="&#xe821;" horiz-adv-x="511" 
d="M511 1482q0 -45 -74 -78l58 -52h-44q-33 0 -70 26q-11 -4 -99 -49q-67 -34 -120 -34h-92q108 41 257 123l-26 24q-36 33 -36 66q0 37 38 67l120 95q0 -25 44 -94t44 -94zM442 1492q0 56 -56 56q-51 0 -51 -41q0 -15 54 -59q53 31 53 44z" />
    <glyph glyph-name="sukunlow" unicode="&#xe822;" horiz-adv-x="326" 
d="M326 1412q0 -50 -38.5 -83.5t-89.5 -33.5q-48 0 -86 29q-42 31 -42 78q0 50 64 116l84 86q0 -40 54 -99t54 -93zM260 1404q0 25 -66 94l-38 -42q-20 -22 -20 -44q0 -56 60 -56q21 0 42.5 14t21.5 34z" />
    <glyph glyph-name="fathatanlow" unicode="&#xe823;" horiz-adv-x="583" 
d="M545 1573q-34 -11 -212 -94q-156 -73 -201 -73h-100q8 4 212 97q153 70 200 70h101zM583 1462q-34 -11 -212 -94q-156 -73 -201 -73h-100q8 4 212 97q153 70 200 70h101z" />
    <glyph glyph-name="dammatanlow" unicode="&#xe824;" horiz-adv-x="576" 
d="M576 1482q0 -45 -74 -78l58 -52h-44q-33 0 -69 25q-147 -82 -213 -82v83q-46 -20 -98 -20h-66q48 20 180 86l54 29v-96q32 12 90 40l-28 25q-36 32 -36 66q0 37 38 67l120 95q0 -25 44 -94t44 -94zM507 1492q0 56 -56 56q-51 0 -51 -41q0 -15 54 -59q53 31 53 44z" />
    <glyph glyph-name="shaddalow" unicode="&#xe825;" horiz-adv-x="551" 
d="M551 1441q-47 -11 -183 -81q-126 -65 -148 -65q-42 0 -94 77q-21 31 -56 72h59q27 0 61.5 -32t44.5 -32q48 0 48 39q0 67 -64 105h61q29 0 49 -31q36 -54 48 -54q45 0 45 48q0 52 -52 80l51 4q43 3 72 -47q38 -68 58 -83z" />
    <glyph glyph-name="kasralow" unicode="&#xe826;" horiz-adv-x="583" 
d="M583 -230q-34 -11 -212 -94q-156 -73 -201 -73h-100q8 4 212 97q153 70 200 70h101z" />
    <glyph glyph-name="kasratanlow" unicode="&#xe827;" horiz-adv-x="583" 
d="M545 -230q-34 -11 -212 -94q-156 -73 -201 -73h-100q8 4 212 97q153 70 200 70h101zM583 -341q-34 -11 -212 -94q-156 -73 -201 -73h-100q8 4 212 97q153 70 200 70h101z" />
    <glyph glyph-name="shaddawithfathaisolatedlow" unicode="&#xe828;" horiz-adv-x="621" 
d="M583 1686q-34 -11 -212 -94q-156 -73 -201 -73h-100q8 4 212 97q153 70 200 70h101zM621 1441q-47 -11 -183 -81q-126 -65 -148 -65q-42 0 -94 77q-21 31 -56 72h59q27 0 61.5 -32t44.5 -32q48 0 48 39q0 67 -64 105h61q29 0 49 -31q36 -54 48 -54q45 0 45 48
q0 52 -52 80l51 4q43 3 72 -47q38 -68 58 -83z" />
    <glyph glyph-name="shaddawithdammaisolatedlow" unicode="&#xe829;" horiz-adv-x="621" 
d="M621 1441q-47 -11 -183 -81q-126 -65 -148 -65q-42 0 -94 77q-21 31 -56 72h59q27 0 61.5 -32t44.5 -32q48 0 48 39q0 67 -64 105h61q29 0 49 -31q36 -54 48 -54q45 0 45 48q0 50 -52 78q-13 5 -45 31q-11 -4 -99 -49q-67 -34 -120 -34h-92q108 41 257 123l-26 24
q-36 33 -36 66q0 37 38 67l120 95q0 -25 44 -94t44 -94q0 -45 -74 -78l58 -52q30 -2 56 -51q33 -61 56 -78zM456 1710q0 56 -56 56q-51 0 -51 -41q0 -15 54 -59q53 31 53 44z" />
    <glyph glyph-name="shaddawithfathatanisolatedlow" unicode="&#xe82a;" horiz-adv-x="621" 
d="M545 1797q-34 -11 -212 -94q-156 -73 -201 -73h-100q8 4 212 97q153 70 200 70h101zM583 1686q-34 -11 -212 -94q-156 -73 -201 -73h-100q8 4 212 97q153 70 200 70h101zM621 1441q-47 -11 -183 -81q-126 -65 -148 -65q-42 0 -94 77q-21 31 -56 72h59q27 0 61.5 -32
t44.5 -32q48 0 48 39q0 67 -64 105h61q29 0 49 -31q36 -54 48 -54q45 0 45 48q0 52 -52 80l51 4q43 3 72 -47q38 -68 58 -83z" />
    <glyph glyph-name="shaddawithdammatanisolatedlow" unicode="&#xe82b;" horiz-adv-x="621" 
d="M621 1441q-47 -11 -183 -81q-126 -65 -148 -65q-42 0 -94 77q-21 31 -56 72h59q27 0 61.5 -32t44.5 -32q48 0 48 39q0 67 -64 105h61q29 0 49 -31q36 -54 48 -54q45 0 45 48q0 50 -52 78q-12 5 -44 30q-147 -82 -213 -82v83q-46 -20 -98 -20h-66q48 20 180 86l54 29v-96
q32 12 90 40l-28 25q-36 32 -36 66q0 37 38 67l120 95q0 -25 44 -94t44 -94q0 -45 -74 -78l58 -52q30 -2 56 -51q33 -61 56 -78zM456 1710q0 56 -56 56q-51 0 -51 -41q0 -15 54 -59q53 31 53 44z" />
    <glyph glyph-name="shaddawithkasratanisolatedlow" unicode="&#xe82d;" horiz-adv-x="678" 
d="M551 1651q-47 -11 -183 -81q-126 -65 -148 -65q-42 0 -94 77q-21 31 -56 72h59q27 0 61.5 -32t44.5 -32q48 0 48 39q0 67 -64 105h61q29 0 49 -31q36 -54 48 -54q45 0 45 48q0 52 -52 80l51 4q43 3 72 -47q38 -68 58 -83zM640 1573q-34 -11 -212 -94q-156 -73 -201 -73
h-100q8 4 212 97q153 70 200 70h101zM678 1462q-34 -11 -212 -94q-156 -73 -201 -73h-100q8 4 212 97q153 70 200 70h101z" />
    <glyph glyph-name="ornateleftparenthesis" unicode="&#xfd3e;" horiz-adv-x="714" 
d="M606 -120l-81 17q-181 123 -274 345q-83 198 -83 437q0 472 357 751l81 19q-143 -187 -202 -380q-56 -181 -56 -428q0 -429 258 -761z" />
    <glyph glyph-name="ornaterightparenthesis" unicode="&#xfd3f;" horiz-adv-x="714" 
d="M598 651q0 -455 -357 -754l-81 -17q259 330 259 784q0 234 -60 417t-199 368l81 -19q181 -125 273 -344q84 -196 84 -435z" />
    <glyph glyph-name="zerowidthnobreakspace" unicode="&#xfeff;" horiz-adv-x="0" 
 />
  </font>
</defs>
</svg>
